  0
SECTION
  2
HEADER
  9
$ACADVER
  1
AC1009
  9
$ANGBASE
 50
0.0000000000
  9
$ANGDIR
 70
     0
  9
$ATTDIA
 70
     0
  9
$ATTMODE
 70
     1
  9
$ATTREQ
 70
     1
  9
$AUNITS
 70
     0
  9
$AUPREC
 70
     0
  9
$AXISMODE
 70
     0
  9
$AXISUNIT
 10
0.0000000000
 20
0.0000000000
  9
$BLIPMODE
 70
     1
  9
$CECOLOR
 62
   256
  9
$CELTYPE
  6
BYLAYER
  9
$CHAMFERA
 40
0.0000000000
  9
$CHAMFERB
 40
0.0000000000
  9
$CLAYER
  8
0
  9
$COORDS
 70
     0
  9
$DIMALT
 70
     0
  9
$DIMALTD
 70
     2
  9
$DIMALTF
 40
25.4000000000
  9
$DIMAPOST
  1

  9
$DIMASO
 70
     1
  9
$DIMASZ
 40
0.1538774405
  9
$DIMBLK
  1

  9
$DIMBLK1
  1

  9
$DIMBLK2
  1

  9
$DIMCEN
 40
9.0000000000E-02
  9
$DIMDLE
 40
0.0000000000
  9
$DIMDLI
 40
0.3800000000
  9
$DIMEXE
 40
0.1500000060
  9
$DIMEXO
 40
0.1000000015
  9
$DIMLFAC
 40
1.0000000000
  9
$DIMLIM
 70
     0
  9
$DIMPOST
  1

  9
$DIMRND
 40
0.0000000000
  9
$DIMSCALE
 40
1.0000000000
  9
$DIMSE1
 70
     0
  9
$DIMSE2
 70
     0
  9
$DIMSHO
 70
     0
  9
$DIMTAD
 70
     0
  9
$DIMTIH
 70
     0
  9
$DIMTM
 40
0.0000000000
  9
$DIMTOH
 70
     1
  9
$DIMTOL
 70
     0
  9
$DIMTP
 40
0.0000000000
  9
$DIMTSZ
 40
0.0000000000
  9
$DIMTXT
 40
6.1999998987E-02
  9
$DIMZIN
 70
     0
  9
$DRAGMODE
 70
     1
  9
$DWGCODEPAGE
  3
ansi_1252
  9
$ELEVATION
 40
0.0000000000
  9
$EXTMAX
 10
5.1125006676
 20
4.1716866493
 30
0.0000000000
  9
$EXTMIN
 10
-5.6249995232
 20
-3.8899998665
 30
0.0000000000
  9
$FASTZOOM
 70
     1
  9
$FILLETRAD
 40
6.2500000000E-02
  9
$FILLMODE
 70
     1
  9
$GRIDMODE
 70
     0
  9
$GRIDUNIT
 10
0.0000000000
 20
0.0000000000
  9
$INSBASE
 10
0.0000000000
 20
0.0000000000
 30
0.0000000000
  9
$LIMCHECK
 70
     0
  9
$LIMMAX
 10
5.1125006676
 20
4.1716866493
  9
$LIMMIN
 10
-5.6249995232
 20
-3.8899998665
  9
$LTSCALE
 40
1.0000000000
  9
$LUNITS
 70
     2
  9
$LUPREC
 70
     3
  9
$MEASUREMENT
 70
     0
  9
$MENU
  1
ACAD
  9
$MIRRTEXT
 70
     0
  9
$ORTHOMODE
 70
     0
  9
$OSMODE
 70
     0
  9
$PDMODE
 70
     0
  9
$PDSIZE
 40
0.0000000000
  9
$PLINEWID
 40
0.0000000000
  9
$PROXYGRAPHICS
 70
     0
  9
$QTEXTMODE
 70
     0
  9
$REGENMODE
 70
     1
  9
$SKETCHINC
 40
0.1000000000
  9
$SKPOLY
 70
     0
  9
$SNAPANG
 50
0.0000000000
  9
$SNAPBASE
 10
0.0000000000
 20
0.0000000000
  9
$SNAPISOPAIR
 70
     0
  9
$SNAPMODE
 70
     0
  9
$SNAPSTYLE
 70
     0
  9
$SNAPUNIT
 10
1.0000000000
 20
1.0000000000
  9
$SPLFRAME
 70
     0
  9
$SPLINESEGS
 70
     8
  9
$TDCREATE
 40
2454357.6109953755
  9
$TDINDWG
 40
0.0000000000
  9
$TDUPDATE
 40
2454357.6109953755
  9
$TDUSRTIMER
 40
0.0000000000
  9
$TEXTSIZE
 40
6.1999998987E-02
  9
$TEXTSTYLE
  7
STANDARD
  9
$THICKNESS
 40
0.0000000000
  9
$TILEMODE
 70
     1
  9
$TRACEWID
 40
5.0000000000E-02
  9
$USERI1
 70
     0
  9
$USERI2
 70
     0
  9
$USERI3
 70
     0
  9
$USERI4
 70
     0
  9
$USERI5
 70
     0
  9
$USERR1
 40
0.0000000000
  9
$USERR2
 40
0.0000000000
  9
$USERR3
 40
0.0000000000
  9
$USERR4
 40
0.0000000000
  9
$USERR5
 40
0.0000000000
  9
$USRTIMER
 70
     1
  9
$VIEWCTR
 10
-0.2562494278
 20
0.1408433914
  9
$VIEWDIR
 10
0.0000000000
 20
0.0000000000
 30
1.0000000000
  9
$VIEWSIZE
 40
8.0616865158
  0
ENDSEC
  0
SECTION
  2
TABLES
  0
TABLE
  2
LTYPE
 70
     6
  0
LTYPE
  2
SOLID
  3
Solid
 70
    64
 72
    65
 73
     0
 40
0.0000000000
  0
LTYPE
  2
DASHED
  3
Dashed
 70
    64
 72
    65
 73
     2
 40
0.1875000000
 49
0.1250000000
 49
-6.2500000000E-02
  0
LTYPE
  2
CENTERLINE
  3
Centerline
 70
    64
 72
    65
 73
     4
 40
1.0000000000
 49
0.7500000000
 49
-6.2500000000E-02
 49
0.1250000000
 49
-6.2500000000E-02
  0
LTYPE
  2
CONSTRUCTION
  3
Construction
 70
    64
 72
    65
 73
     2
 40
4.0000000000E-02
 49
1.0000000000E-02
 49
-3.0000000000E-02
  0
LTYPE
  2
GAP
  3
Gap
 70
    64
 72
    65
 73
     3
 40
100.0599999987
 49
0.0000000000
 49
-5.9999998659E-02
 49
100.0000000000
  0
LTYPE
  2
SOLID
  3
Solid
 70
    64
 72
    65
 73
     0
 40
0.0000000000
  0
ENDTAB
  0
TABLE
  2
LAYER
 70
    10
  0
LAYER
  2
Layer0$C$L0
 70
     0
  6
SOLID
 62
     2
  0
LAYER
  2
Layer0$C$L0$B
 70
     0
  6
SOLID
 62
    -2
  0
LAYER
  2
Layer2$C$L2
 70
     0
  6
SOLID
 62
     2
  0
LAYER
  2
Layer10$C$L10
 70
     0
  6
SOLID
 62
     2
  0
LAYER
  2
Layer20$C$L20
 70
     0
  6
SOLID
 62
     4
  0
LAYER
  2
Layer30$C$L30
 70
     0
  6
SOLID
 62
     4
  0
LAYER
  2
Layer60$C$L60
 70
     0
  6
SOLID
 62
     3
  0
LAYER
  2
Layer160$C$L160
 70
     0
  6
SOLID
 62
   171
  0
LAYER
  2
Layer200$C$L200
 70
     0
  6
SOLID
 62
   221
  0
LAYER
  2
Layer220$C$L220
 70
     0
  6
SOLID
 62
     7
  0
ENDTAB
  0
TABLE
  2
STYLE
 70
     1
  0
STYLE
  2
CADRASTD
  3
txt
  4

 40
0.0000000000
 41
1.0000000000
 42
6.1999998987E-02
 50
0.0000000000
 70
     0
 71
     0
  0
ENDTAB
  0
TABLE
  2
DIMSTYLE
 70
     3
  0
DIMSTYLE
  2
STANDARD
 70
     0
  3

  4

  5

  6

  7

 40
1.0000000000
 41
0.1800000000
 42
0.0000000000
 43
0.3800000000
 44
0.0000000000
 45
0.0000000000
 46
0.0000000000
 47
0.0000000000
 48
0.0000000000
140
0.1560000000
141
9.0000000000E-02
142
0.0000000000
143
1.0000000000
144
1.0000000000
145
0.0000000000
146
1.0000000000
147
7.8000000000E-02
 71
     0
 72
     0
 73
     0
 74
     0
 75
     0
 76
     0
 77
     3
 78
     0
170
     0
171
     0
172
     0
173
     0
174
     0
175
     0
176
     0
177
     0
178
     0
270
     2
271
     2
272
     2
273
     2
274
     2
275
     1
280
     0
281
     0
282
     0
283
     1
284
     0
285
     0
286
     0
287
     3
288
     0
  0
DIMSTYLE
  2
CADRASTANDARD
 70
     0
  3

  4

  5

  6

  7

 40
1.0000000000
 41
0.1538774405
 42
0.0000000000
 43
0.3800000000
 44
0.0000000000
 45
0.0000000000
 46
0.0000000000
 47
0.0000000000
 48
0.0000000000
140
0.1560000000
141
9.0000000000E-02
142
0.0000000000
143
1.0000000000
144
1.0000000000
145
0.0000000000
146
1.0000000000
147
7.8000000000E-02
 71
     0
 72
     0
 73
     0
 74
     0
 75
     0
 76
     0
 77
     3
 78
     0
170
     0
171
     0
172
     0
173
     0
174
     0
175
     0
176
     0
177
     0
178
     0
270
     2
271
     2
272
     2
273
     2
274
     2
275
     1
280
     0
281
     0
282
     0
283
     1
284
     0
285
     0
286
     0
287
     3
288
     0
  0
DIMSTYLE
  2
DIM2
 70
     0
  3

  4

  5

  6

  7

 40
1.0000000000
 41
0.1538774405
 42
0.1000000015
 43
0.3800000000
 44
0.1500000060
 45
0.0000000000
 46
0.0000000000
 47
0.0000000000
 48
0.0000000000
140
6.2000002233E-02
141
9.0000000000E-02
142
0.0000000000
143
1.0000000000
144
1.0000000000
145
0.0000000000
146
1.0000000000
147
3.1000001116E-02
 71
     0
 72
     0
 73
     1
 74
     1
 75
     0
 76
     0
 77
     0
 78
     0
170
     0
171
     0
172
     0
173
     0
174
     0
175
     0
176
     0
177
     0
178
     0
270
     2
271
     2
272
     2
273
     2
274
     0
275
     1
280
     0
281
     0
282
     0
283
     1
284
     0
285
     0
286
     0
287
     3
288
     0
  0
ENDTAB
  0
TABLE
  2
APPID
  5
1
100
AcDbSymbolTable
 70
     1
  0
APPID
  5
2
100
AcDbSymbolTableRecord
100
AcDbRegAppTableRecord
  2
ACAD
 70
     0
  0
ENDTAB
  0
ENDSEC
  0
SECTION
  2
BLOCKS
  0
BLOCK
  8
Layer60$C$L60
  2
*D1
 70
     1
 10
0.0000000000
 20
0.0000000000
  0
SOLID
  8
Layer60$C$L60
 67
     0
 10
-4.1675241076
 20
3.3898492312
 11
-4.1675241076
 21
3.4507174071
 12
-4.3205265999
 22
3.4202833192
 13
-4.3205265999
 23
3.4202833192
  0
LINE
  8
Layer60$C$L60
 67
     0
 10
-4.3205265999
 20
3.4202833192
 30
0.0000000000
 11
-2.1778729461
 21
3.4202833192
 31
0.0000000000
  0
SOLID
  8
Layer60$C$L60
 67
     0
 10
0.3064709078
 20
3.4507174071
 11
0.3064709078
 21
3.3898492312
 12
0.4594734001
 22
3.4202833192
 13
0.4594734001
 23
3.4202833192
  0
LINE
  8
Layer60$C$L60
 67
     0
 10
0.4594734001
 20
3.4202833192
 30
0.0000000000
 11
-1.8844515875
 21
3.4202833192
 31
0.0000000000
  0
LINE
  8
Layer60$C$L60
  6
GAP
 67
     0
 10
-4.3205265999
 20
2.8572824970
 30
0.0000000000
 11
-4.3205265999
 21
3.5702833251
 31
0.0000000000
  0
LINE
  8
Layer60$C$L60
  6
GAP
 67
     0
 10
0.4594734001
 20
2.8572824970
 30
0.0000000000
 11
0.4594734001
 21
3.5702833251
 31
0.0000000000
  0
TEXT
  8
Layer60$C$L60
 67
     0
  7
CADRASTD
 10
-2.1468729448
 20
3.3892833181
 30
0.0000000000
 40
6.2000002233E-02
  1
4.78
 41
1.0000000000
 50
0.0000000000
 51
0.0000000000
 72
     5
 11
-1.9154515889
 21
3.3892833181
 31
0.0000000000
 71
0.0000000000
  0
ENDBLK
  8
Layer60$C$L60
  0
BLOCK
  8
Layer60$C$L60
  2
*D2
 70
     1
 10
0.0000000000
 20
0.0000000000
  0
SOLID
  8
Layer60$C$L60
 67
     0
 10
-4.1675241076
 20
3.0361912703
 11
-4.1675241076
 21
3.0970594463
 12
-4.3205265999
 22
3.0666253583
 13
-4.3205265999
 23
3.0666253583
  0
LINE
  8
Layer60$C$L60
 67
     0
 10
-4.3205265999
 20
3.0666253583
 30
0.0000000000
 11
-3.2722371747
 21
3.0666253583
 31
0.0000000000
  0
SOLID
  8
Layer60$C$L60
 67
     0
 10
-2.0835288734
 20
3.0970594463
 11
-2.0835288734
 21
3.0361912703
 12
-1.9305263811
 22
3.0666253583
 13
-1.9305263811
 23
3.0666253583
  0
LINE
  8
Layer60$C$L60
 67
     0
 10
-1.9305263811
 20
3.0666253583
 30
0.0000000000
 11
-2.9788158161
 21
3.0666253583
 31
0.0000000000
  0
LINE
  8
Layer60$C$L60
  6
GAP
 67
     0
 10
-1.9305263811
 20
2.7741266266
 30
0.0000000000
 11
-1.9305263811
 21
3.2166253643
 31
0.0000000000
  0
TEXT
  8
Layer60$C$L60
 67
     0
  7
CADRASTD
 10
-3.2412371733
 20
3.0356253572
 30
0.0000000000
 40
6.2000002233E-02
  1
2.39
 41
1.0000000000
 50
0.0000000000
 51
0.0000000000
 72
     5
 11
-3.0098158174
 21
3.0356253572
 31
0.0000000000
 71
0.0000000000
  0
ENDBLK
  8
Layer60$C$L60
  0
BLOCK
  8
Layer60$C$L60
  2
*D3
 70
     1
 10
0.0000000000
 20
0.0000000000
  0
SOLID
  8
Layer60$C$L60
 67
     0
 10
0.8431181120
 20
2.2292800032
 11
0.9039862879
 21
2.2292800032
 12
0.8735521999
 22
2.3822824955
 13
0.8735521999
 23
2.3822824955
  0
LINE
  8
Layer60$C$L60
 67
     0
 10
0.8735521999
 20
2.3822824955
 30
0.0000000000
 11
0.8735521999
 21
2.0702824955
 31
0.0000000000
  0
SOLID
  8
Layer60$C$L60
 67
     0
 10
0.9039862879
 20
2.9102849878
 11
0.8431181120
 21
2.9102849878
 12
0.8735521999
 22
2.7572824955
 13
0.8735521999
 23
2.7572824955
  0
LINE
  8
Layer60$C$L60
 67
     0
 10
0.8735521999
 20
2.7572824955
 30
0.0000000000
 11
0.8735521999
 21
3.0692824955
 31
0.0000000000
  0
TEXT
  8
Layer60$C$L60
  6
GAP
 67
     0
  7
CADRASTD
 10
0.7888415215
 20
2.5418213776
 30
0.0000000000
 40
6.2000002233E-02
  1
.38
 41
1.0000000000
 50
0.0000000000
 51
0.0000000000
 72
     5
 11
0.9582628784
 21
2.5418213776
 31
0.0000000000
 71
0.0000000000
  0
ENDBLK
  8
Layer60$C$L60
  0
BLOCK
  8
Layer60$C$L60
  2
*D4
 70
     1
 10
0.0000000000
 20
0.0000000000
  0
SOLID
  8
Layer60$C$L60
 67
     0
 10
1.5864238254
 20
1.4102849878
 11
1.5255556495
 21
1.4102849878
 12
1.5559897374
 22
1.2572824955
 13
1.5559897374
 23
1.2572824955
  0
LINE
  8
Layer60$C$L60
 67
     0
 10
1.5559897374
 20
1.2572824955
 30
0.0000000000
 11
1.5559897374
 21
1.9452824930
 31
0.0000000000
  0
SOLID
  8
Layer60$C$L60
 67
     0
 10
1.5255556495
 20
2.6042800032
 11
1.5864238254
 21
2.6042800032
 12
1.5559897374
 22
2.7572824955
 13
1.5559897374
 23
2.7572824955
  0
LINE
  8
Layer60$C$L60
 67
     0
 10
1.5559897374
 20
2.7572824955
 30
0.0000000000
 11
1.5559897374
 21
2.0692824980
 31
0.0000000000
  0
LINE
  8
Layer60$C$L60
  6
GAP
 67
     0
 10
0.5594734016
 20
1.2572824955
 30
0.0000000000
 11
1.7059897434
 21
1.2572824955
 31
0.0000000000
  0
LINE
  8
Layer60$C$L60
  6
GAP
 67
     0
 10
0.5594734016
 20
2.7572824955
 30
0.0000000000
 11
1.7059897434
 21
2.7572824955
 31
0.0000000000
  0
TEXT
  8
Layer60$C$L60
 67
     0
  7
CADRASTD
 10
1.4402790595
 20
1.9762824944
 30
0.0000000000
 40
6.2000002233E-02
  1
1.50
 41
1.0000000000
 50
0.0000000000
 51
0.0000000000
 72
     5
 11
1.6717004153
 21
1.9762824944
 31
0.0000000000
 71
0.0000000000
  0
ENDBLK
  8
Layer60$C$L60
  0
BLOCK
  8
Layer60$C$L60
  2
*D5
 70
     1
 10
0.0000000000
 20
0.0000000000
  0
SOLID
  8
Layer60$C$L60
 67
     0
 10
0.8431181120
 20
2.2292800032
 11
0.9039862879
 21
2.2292800032
 12
0.8735521999
 22
2.3822824955
 13
0.8735521999
 23
2.3822824955
  0
LINE
  8
Layer60$C$L60
 67
     0
 10
0.8735521999
 20
2.3822824955
 30
0.0000000000
 11
0.8735521999
 21
2.0368091722
 31
0.0000000000
  0
SOLID
  8
Layer60$C$L60
 67
     0
 10
0.9039862879
 20
1.7852849878
 11
0.8431181120
 21
1.7852849878
 12
0.8735521999
 22
1.6322824955
 13
0.8735521999
 23
1.6322824955
  0
LINE
  8
Layer60$C$L60
 67
     0
 10
0.8735521999
 20
1.6322824955
 30
0.0000000000
 11
0.8735521999
 21
1.9128091673
 31
0.0000000000
  0
LINE
  8
Layer60$C$L60
  6
GAP
 67
     0
 10
-1.5326329693
 20
2.3822824955
 30
0.0000000000
 11
1.0235522059
 21
2.3822824955
 31
0.0000000000
  0
LINE
  8
Layer60$C$L60
  6
GAP
 67
     0
 10
-1.5326329693
 20
1.6322824955
 30
0.0000000000
 11
1.0235522059
 21
1.6322824955
 31
0.0000000000
  0
TEXT
  8
Layer60$C$L60
 67
     0
  7
CADRASTD
 10
0.7888415215
 20
1.9438091687
 30
0.0000000000
 40
6.2000002233E-02
  1
.75
 41
1.0000000000
 50
0.0000000000
 51
0.0000000000
 72
     5
 11
0.9582628784
 21
1.9438091687
 31
0.0000000000
 71
0.0000000000
  0
ENDBLK
  8
Layer60$C$L60
  0
BLOCK
  8
Layer60$C$L60
  2
*D6
 70
     1
 10
0.0000000000
 20
0.0000000000
  0
SOLID
  8
Layer60$C$L60
 67
     0
 10
-2.2355146628
 20
1.0054338447
 11
-2.2355146628
 21
1.0663020207
 12
-2.3885171551
 22
1.0358679327
 13
-2.3885171551
 23
1.0358679327
  0
LINE
  8
Layer60$C$L60
 67
     0
 10
-2.3885171551
 20
1.0358679327
 30
0.0000000000
 11
-2.0462367318
 21
1.0358679327
 31
0.0000000000
  0
SOLID
  8
Layer60$C$L60
 67
     0
 10
-1.6255374346
 20
1.0663020207
 11
-1.6255374346
 21
1.0054338447
 12
-1.4725349423
 22
1.0358679327
 13
-1.4725349423
 23
1.0358679327
  0
LINE
  8
Layer60$C$L60
 67
     0
 10
-1.4725349423
 20
1.0358679327
 30
0.0000000000
 11
-1.8148153722
 21
1.0358679327
 31
0.0000000000
  0
LINE
  8
Layer60$C$L60
  6
GAP
 67
     0
 10
-2.3885171551
 20
1.5172835864
 30
0.0000000000
 11
-2.3885171551
 21
0.8858679267
 31
0.0000000000
  0
LINE
  8
Layer60$C$L60
  6
GAP
 67
     0
 10
-1.4725349423
 20
1.5172831096
 30
0.0000000000
 11
-1.4725349423
 21
0.8858679267
 31
0.0000000000
  0
TEXT
  8
Layer60$C$L60
 67
     0
  7
CADRASTD
 10
-2.0152367304
 20
1.0048679316
 30
0.0000000000
 40
6.2000002233E-02
  1
.92
 41
1.0000000000
 50
0.0000000000
 51
0.0000000000
 72
     5
 11
-1.8458153735
 21
1.0048679316
 31
0.0000000000
 71
0.0000000000
  0
ENDBLK
  8
Layer60$C$L60
  0
BLOCK
  8
Layer60$C$L60
  2
*D7
 70
     1
 10
0.0000000000
 20
0.0000000000
  0
SOLID
  8
Layer60$C$L60
 67
     0
 10
1.3924655429
 20
-1.1667888247
 11
1.3315973670
 21
-1.1667888247
 12
1.3620314549
 22
-1.3197913170
 13
1.3620314549
 23
-1.3197913170
  0
LINE
  8
Layer60$C$L60
 67
     0
 10
1.3620314549
 20
-1.3197913170
 30
0.0000000000
 11
1.3620314549
 21
-0.4650260004
 31
0.0000000000
  0
SOLID
  8
Layer60$C$L60
 67
     0
 10
1.3315973670
 20
0.3607368289
 11
1.3924655429
 21
0.3607368289
 12
1.3620314549
 22
0.5137393211
 13
1.3620314549
 23
0.5137393211
  0
LINE
  8
Layer60$C$L60
 67
     0
 10
1.3620314549
 20
0.5137393211
 30
0.0000000000
 11
1.3620314549
 21
-0.3410259955
 31
0.0000000000
  0
LINE
  8
Layer60$C$L60
  6
GAP
 67
     0
 10
0.5594567358
 20
-1.3197913170
 30
0.0000000000
 11
1.5120314609
 21
-1.3197913170
 31
0.0000000000
  0
LINE
  8
Layer60$C$L60
  6
GAP
 67
     0
 10
-0.8337565101
 20
0.5137393211
 30
0.0000000000
 11
1.5120314609
 21
0.5137393211
 31
0.0000000000
  0
TEXT
  8
Layer60$C$L60
 67
     0
  7
CADRASTD
 10
1.2463207770
 20
-0.4340259990
 30
0.0000000000
 40
6.2000002233E-02
  1
1.83
 41
1.0000000000
 50
0.0000000000
 51
0.0000000000
 72
     5
 11
1.4777421329
 21
-0.4340259990
 31
0.0000000000
 71
0.0000000000
  0
ENDBLK
  8
Layer60$C$L60
  0
BLOCK
  8
Layer60$C$L60
  2
*D8
 70
     1
 10
0.0000000000
 20
0.0000000000
  0
SOLID
  8
Layer60$C$L60
 67
     0
 10
0.8345368909
 20
-0.7227938093
 11
0.8954050668
 21
-0.7227938093
 12
0.8649709788
 22
-0.5697913170
 13
0.8649709788
 23
-0.5697913170
  0
LINE
  8
Layer60$C$L60
 67
     0
 10
0.8649709788
 20
-0.5697913170
 30
0.0000000000
 11
0.8649709788
 21
-0.8827913145
 31
0.0000000000
  0
SOLID
  8
Layer60$C$L60
 67
     0
 10
0.8954050668
 20
-1.1667888247
 11
0.8345368909
 21
-1.1667888247
 12
0.8649709788
 22
-1.3197913170
 13
0.8649709788
 23
-1.3197913170
  0
LINE
  8
Layer60$C$L60
 67
     0
 10
0.8649709788
 20
-1.3197913170
 30
0.0000000000
 11
0.8649709788
 21
-1.0067913195
 31
0.0000000000
  0
LINE
  8
Layer60$C$L60
  6
GAP
 67
     0
 10
0.5594567358
 20
-0.5697913170
 30
0.0000000000
 11
1.0149709848
 21
-0.5697913170
 31
0.0000000000
  0
TEXT
  8
Layer60$C$L60
  6
GAP
 67
     0
  7
CADRASTD
 10
0.7802603004
 20
-0.9757913181
 30
0.0000000000
 40
6.2000002233E-02
  1
.75
 41
1.0000000000
 50
0.0000000000
 51
0.0000000000
 72
     5
 11
0.9496816573
 21
-0.9757913181
 31
0.0000000000
 71
0.0000000000
  0
ENDBLK
  8
Layer60$C$L60
  0
BLOCK
  8
Layer0$C$L0
  2
*X1
 70
     1
 10
0.0000000000
 20
0.0000000000
  0
LINE
  8
Layer0$C$L0
 67
     0
 10
4.877482
 20
-1.554191E-03
 30
0.000000
 11
4.889668
 21
1.063160E-02
 31
0.000000
  0
LINE
  8
Layer0$C$L0
 67
     0
 10
4.886739
 20
2.891550E-02
 30
0.000000
 11
4.853525
 21
-4.298434E-03
 31
0.000000
  0
LINE
  8
Layer0$C$L0
 67
     0
 10
4.830322
 20
-6.287912E-03
 30
0.000000
 11
4.883810
 21
4.719939E-02
 31
0.000000
  0
LINE
  8
Layer0$C$L0
 67
     0
 10
4.880880
 20
6.548329E-02
 30
0.000000
 11
4.807885
 21
-7.512460E-03
 31
0.000000
  0
LINE
  8
Layer0$C$L0
 67
     0
 10
4.786201
 20
-7.983072E-03
 30
0.000000
 11
4.862841
 21
6.865681E-02
 31
0.000000
  0
LINE
  8
Layer0$C$L0
 67
     0
 10
4.838506
 20
6.553490E-02
 30
0.000000
 11
4.765243
 21
-7.727982E-03
 31
0.000000
  0
LINE
  8
Layer0$C$L0
 67
     0
 10
4.745091
 20
-6.666402E-03
 30
0.000000
 11
4.818429
 21
6.667171E-02
 31
0.000000
  0
LINE
  8
Layer0$C$L0
 67
     0
 10
4.804770
 20
7.422546E-02
 30
0.000000
 11
4.725945
 21
-4.599073E-03
 31
0.000000
  0
LINE
  8
Layer0$C$L0
 67
     0
 10
4.708183
 20
-1.148099E-03
 30
0.000000
 11
4.800126
 21
9.079488E-02
 31
0.000000
  0
LINE
  8
Layer0$C$L0
 67
     0
 10
4.799984
 20
0.111866
 30
0.000000
 11
4.692246
 21
4.128182E-03
 31
0.000000
  0
LINE
  8
Layer0$C$L0
 67
     0
 10
4.885571
 20
0.197453
 30
0.000000
 11
4.881079
 21
0.192961
 31
0.000000
  0
LINE
  8
Layer0$C$L0
 67
     0
 10
4.799984
 20
0.133079
 30
0.000000
 11
4.678338
 21
1.143258E-02
 31
0.000000
  0
LINE
  8
Layer0$C$L0
 67
     0
 10
4.885571
 20
0.218666
 30
0.000000
 11
4.859866
 21
0.192961
 31
0.000000
  0
LINE
  8
Layer0$C$L0
 67
     0
 10
4.799984
 20
0.154292
 30
0.000000
 11
4.666494
 21
2.080268E-02
 31
0.000000
  0
LINE
  8
Layer0$C$L0
 67
     0
 10
4.885571
 20
0.239879
 30
0.000000
 11
4.838653
 21
0.192961
 31
0.000000
  0
LINE
  8
Layer0$C$L0
 67
     0
 10
4.799984
 20
0.175506
 30
0.000000
 11
4.656990
 21
3.251142E-02
 31
0.000000
  0
LINE
  8
Layer0$C$L0
 67
     0
 10
4.885571
 20
0.261093
 30
0.000000
 11
4.817440
 21
0.192961
 31
0.000000
  0
LINE
  8
Layer0$C$L0
 67
     0
 10
4.871875
 20
0.268610
 30
0.000000
 11
4.650315
 21
4.704990E-02
 31
0.000000
  0
LINE
  8
Layer0$C$L0
 67
     0
 10
4.850662
 20
0.268610
 30
0.000000
 11
4.646334
 21
6.428210E-02
 31
0.000000
  0
LINE
  8
Layer0$C$L0
 67
     0
 10
4.829449
 20
0.268610
 30
0.000000
 11
4.644312
 21
8.347376E-02
 31
0.000000
  0
LINE
  8
Layer0$C$L0
 67
     0
 10
4.808236
 20
0.268610
 30
0.000000
 11
4.644067
 21
0.104441
 31
0.000000
  0
LINE
  8
Layer0$C$L0
 67
     0
 10
4.517905
 20
-5.070965E-04
 30
0.000000
 11
4.516507
 21
-1.904964E-03
 31
0.000000
  0
LINE
  8
Layer0$C$L0
 67
     0
 10
4.799984
 20
0.281572
 30
0.000000
 11
4.644067
 21
0.125654
 31
0.000000
  0
LINE
  8
Layer0$C$L0
 67
     0
 10
4.517905
 20
2.070611E-02
 30
0.000000
 11
4.495294
 21
-1.904964E-03
 31
0.000000
  0
LINE
  8
Layer0$C$L0
 67
     0
 10
4.799984
 20
0.302785
 30
0.000000
 11
4.644067
 21
0.146868
 31
0.000000
  0
LINE
  8
Layer0$C$L0
 67
     0
 10
4.517905
 20
4.191931E-02
 30
0.000000
 11
4.474081
 21
-1.904964E-03
 31
0.000000
  0
LINE
  8
Layer0$C$L0
 67
     0
 10
4.799984
 20
0.323998
 30
0.000000
 11
4.644067
 21
0.168081
 31
0.000000
  0
LINE
  8
Layer0$C$L0
 67
     0
 10
4.517905
 20
6.313252E-02
 30
0.000000
 11
4.452868
 21
-1.904964E-03
 31
0.000000
  0
LINE
  8
Layer0$C$L0
 67
     0
 10
4.799984
 20
0.345211
 30
0.000000
 11
4.644067
 21
0.189294
 31
0.000000
  0
LINE
  8
Layer0$C$L0
 67
     0
 10
4.517905
 20
8.434572E-02
 30
0.000000
 11
4.431654
 21
-1.904964E-03
 31
0.000000
  0
LINE
  8
Layer0$C$L0
 67
     0
 10
4.799984
 20
0.366424
 30
0.000000
 11
4.626521
 21
0.192961
 31
0.000000
  0
LINE
  8
Layer0$C$L0
 67
     0
 10
4.517905
 20
0.105559
 30
0.000000
 11
4.410441
 21
-1.904964E-03
 31
0.000000
  0
LINE
  8
Layer0$C$L0
 67
     0
 10
4.775586
 20
0.363240
 30
0.000000
 11
4.605307
 21
0.192961
 31
0.000000
  0
LINE
  8
Layer0$C$L0
 67
     0
 10
4.517905
 20
0.126772
 30
0.000000
 11
4.389228
 21
-1.904964E-03
 31
0.000000
  0
LINE
  8
Layer0$C$L0
 67
     0
 10
4.743381
 20
0.352248
 30
0.000000
 11
4.586657
 21
0.195524
 31
0.000000
  0
LINE
  8
Layer0$C$L0
 67
     0
 10
4.517905
 20
0.147985
 30
0.000000
 11
4.372555
 21
2.634871E-03
 31
0.000000
  0
LINE
  8
Layer0$C$L0
 67
     0
 10
4.638530
 20
0.268610
 30
0.000000
 11
4.586657
 21
0.216737
 31
0.000000
  0
LINE
  8
Layer0$C$L0
 67
     0
 10
4.711176
 20
0.341256
 30
0.000000
 11
4.644067
 21
0.274147
 31
0.000000
  0
LINE
  8
Layer0$C$L0
 67
     0
 10
4.517905
 20
0.169199
 30
0.000000
 11
4.372555
 21
2.384808E-02
 31
0.000000
  0
LINE
  8
Layer0$C$L0
 67
     0
 10
4.617317
 20
0.268610
 30
0.000000
 11
4.586657
 21
0.237950
 31
0.000000
  0
LINE
  8
Layer0$C$L0
 67
     0
 10
4.678971
 20
0.330264
 30
0.000000
 11
4.644067
 21
0.295360
 31
0.000000
  0
LINE
  8
Layer0$C$L0
 67
     0
 10
4.517905
 20
0.190412
 30
0.000000
 11
4.358288
 21
3.079451E-02
 31
0.000000
  0
LINE
  8
Layer0$C$L0
 67
     0
 10
4.596104
 20
0.268610
 30
0.000000
 11
4.586657
 21
0.259164
 31
0.000000
  0
LINE
  8
Layer0$C$L0
 67
     0
 10
4.646766
 20
0.319272
 30
0.000000
 11
4.644067
 21
0.316573
 31
0.000000
  0
LINE
  8
Layer0$C$L0
 67
     0
 10
4.517905
 20
0.211625
 30
0.000000
 11
4.311284
 21
5.003541E-03
 31
0.000000
  0
LINE
  8
Layer0$C$L0
 67
     0
 10
4.517905
 20
0.232838
 30
0.000000
 11
4.281897
 21
-3.170433E-03
 31
0.000000
  0
LINE
  8
Layer0$C$L0
 67
     0
 10
4.517905
 20
0.254051
 30
0.000000
 11
4.257231
 21
-6.623076E-03
 31
0.000000
  0
LINE
  8
Layer0$C$L0
 67
     0
 10
4.317414
 20
7.477361E-02
 30
0.000000
 11
4.234738
 21
-7.902125E-03
 31
0.000000
  0
LINE
  8
Layer0$C$L0
 67
     0
 10
4.511250
 20
0.268610
 30
0.000000
 11
4.360613
 21
0.117973
 31
0.000000
  0
LINE
  8
Layer0$C$L0
 67
     0
 10
4.294462
 20
7.303433E-02
 30
0.000000
 11
4.213686
 21
-7.741352E-03
 31
0.000000
  0
LINE
  8
Layer0$C$L0
 67
     0
 10
4.490037
 20
0.268610
 30
0.000000
 11
4.362252
 21
0.140825
 31
0.000000
  0
LINE
  8
Layer0$C$L0
 67
     0
 10
4.275916
 20
7.570126E-02
 30
0.000000
 11
4.193987
 21
-6.227551E-03
 31
0.000000
  0
LINE
  8
Layer0$C$L0
 67
     0
 10
4.468824
 20
0.268610
 30
0.000000
 11
4.362252
 21
0.162038
 31
0.000000
  0
LINE
  8
Layer0$C$L0
 67
     0
 10
4.261143
 20
8.214171E-02
 30
0.000000
 11
4.175734
 21
-3.267384E-03
 31
0.000000
  0
LINE
  8
Layer0$C$L0
 67
     0
 10
4.447611
 20
0.268610
 30
0.000000
 11
4.362252
 21
0.183251
 31
0.000000
  0
LINE
  8
Layer0$C$L0
 67
     0
 10
4.250848
 20
9.306020E-02
 30
0.000000
 11
4.158939
 21
1.151254E-03
 31
0.000000
  0
LINE
  8
Layer0$C$L0
 67
     0
 10
4.426398
 20
0.268610
 30
0.000000
 11
4.362252
 21
0.204464
 31
0.000000
  0
LINE
  8
Layer0$C$L0
 67
     0
 10
4.245618
 20
0.109044
 30
0.000000
 11
4.143588
 21
7.013573E-03
 31
0.000000
  0
LINE
  8
Layer0$C$L0
 67
     0
 10
4.405185
 20
0.268610
 30
0.000000
 11
4.362252
 21
0.225678
 31
0.000000
  0
LINE
  8
Layer0$C$L0
 67
     0
 10
4.244953
 20
0.129592
 30
0.000000
 11
4.129766
 21
1.440426E-02
 31
0.000000
  0
LINE
  8
Layer0$C$L0
 67
     0
 10
4.383972
 20
0.268610
 30
0.000000
 11
4.362252
 21
0.246891
 31
0.000000
  0
LINE
  8
Layer0$C$L0
 67
     0
 10
4.244953
 20
0.150805
 30
0.000000
 11
4.117622
 21
2.347392E-02
 31
0.000000
  0
LINE
  8
Layer0$C$L0
 67
     0
 10
4.362758
 20
0.268610
 30
0.000000
 11
4.362252
 21
0.268104
 31
0.000000
  0
LINE
  8
Layer0$C$L0
 67
     0
 10
4.244953
 20
0.172018
 30
0.000000
 11
4.107303
 21
3.436779E-02
 31
0.000000
  0
LINE
  8
Layer0$C$L0
 67
     0
 10
4.244953
 20
0.193231
 30
0.000000
 11
4.099097
 21
4.737508E-02
 31
0.000000
  0
LINE
  8
Layer0$C$L0
 67
     0
 10
4.244953
 20
0.214445
 30
0.000000
 11
4.093106
 21
6.259754E-02
 31
0.000000
  0
LINE
  8
Layer0$C$L0
 67
     0
 10
4.244953
 20
0.235658
 30
0.000000
 11
4.089411
 21
8.011533E-02
 31
0.000000
  0
LINE
  8
Layer0$C$L0
 67
     0
 10
3.997189
 20
9.106799E-03
 30
0.000000
 11
3.986177
 21
-1.904964E-03
 31
0.000000
  0
LINE
  8
Layer0$C$L0
 67
     0
 10
4.244953
 20
0.256871
 30
0.000000
 11
4.088646
 21
0.100564
 31
0.000000
  0
LINE
  8
Layer0$C$L0
 67
     0
 10
3.997189
 20
3.032000E-02
 30
0.000000
 11
3.964964
 21
-1.904964E-03
 31
0.000000
  0
LINE
  8
Layer0$C$L0
 67
     0
 10
4.235479
 20
0.268610
 30
0.000000
 11
4.088646
 21
0.121777
 31
0.000000
  0
LINE
  8
Layer0$C$L0
 67
     0
 10
3.997189
 20
5.153321E-02
 30
0.000000
 11
3.943751
 21
-1.904964E-03
 31
0.000000
  0
LINE
  8
Layer0$C$L0
 67
     0
 10
4.214266
 20
0.268610
 30
0.000000
 11
4.088646
 21
0.142990
 31
0.000000
  0
LINE
  8
Layer0$C$L0
 67
     0
 10
3.997189
 20
7.274641E-02
 30
0.000000
 11
3.922538
 21
-1.904964E-03
 31
0.000000
  0
LINE
  8
Layer0$C$L0
 67
     0
 10
4.193053
 20
0.268610
 30
0.000000
 11
4.088646
 21
0.164203
 31
0.000000
  0
LINE
  8
Layer0$C$L0
 67
     0
 10
3.997189
 20
9.395961E-02
 30
0.000000
 11
3.901325
 21
-1.904964E-03
 31
0.000000
  0
LINE
  8
Layer0$C$L0
 67
     0
 10
4.171839
 20
0.268610
 30
0.000000
 11
4.088646
 21
0.185417
 31
0.000000
  0
LINE
  8
Layer0$C$L0
 67
     0
 10
3.997189
 20
0.115173
 30
0.000000
 11
3.880111
 21
-1.904964E-03
 31
0.000000
  0
LINE
  8
Layer0$C$L0
 67
     0
 10
4.150626
 20
0.268610
 30
0.000000
 11
4.088646
 21
0.206630
 31
0.000000
  0
LINE
  8
Layer0$C$L0
 67
     0
 10
3.997189
 20
0.136386
 30
0.000000
 11
3.858898
 21
-1.904964E-03
 31
0.000000
  0
LINE
  8
Layer0$C$L0
 67
     0
 10
4.129413
 20
0.268610
 30
0.000000
 11
4.088646
 21
0.227843
 31
0.000000
  0
LINE
  8
Layer0$C$L0
 67
     0
 10
3.997189
 20
0.157599
 30
0.000000
 11
3.841272
 21
1.682055E-03
 31
0.000000
  0
LINE
  8
Layer0$C$L0
 67
     0
 10
4.108200
 20
0.268610
 30
0.000000
 11
4.088646
 21
0.249056
 31
0.000000
  0
LINE
  8
Layer0$C$L0
 67
     0
 10
3.997021
 20
0.178645
 30
0.000000
 11
3.841272
 21
2.289526E-02
 31
0.000000
  0
LINE
  8
Layer0$C$L0
 67
     0
 10
3.994254
 20
0.197091
 30
0.000000
 11
3.841272
 21
4.410846E-02
 31
0.000000
  0
LINE
  8
Layer0$C$L0
 67
     0
 10
3.989119
 20
0.213169
 30
0.000000
 11
3.841272
 21
6.532167E-02
 31
0.000000
  0
LINE
  8
Layer0$C$L0
 67
     0
 10
3.981820
 20
0.227083
 30
0.000000
 11
3.841272
 21
8.653487E-02
 31
0.000000
  0
LINE
  8
Layer0$C$L0
 67
     0
 10
3.972314
 20
0.238791
 30
0.000000
 11
3.841272
 21
0.107748
 31
0.000000
  0
LINE
  8
Layer0$C$L0
 67
     0
 10
3.730500
 20
1.818938E-02
 30
0.000000
 11
3.710406
 21
-1.904964E-03
 31
0.000000
  0
LINE
  8
Layer0$C$L0
 67
     0
 10
3.960901
 20
0.248590
 30
0.000000
 11
3.841272
 21
0.128961
 31
0.000000
  0
LINE
  8
Layer0$C$L0
 67
     0
 10
3.730500
 20
3.940259E-02
 30
0.000000
 11
3.689193
 21
-1.904964E-03
 31
0.000000
  0
LINE
  8
Layer0$C$L0
 67
     0
 10
3.947785
 20
0.256688
 30
0.000000
 11
3.841272
 21
0.150174
 31
0.000000
  0
LINE
  8
Layer0$C$L0
 67
     0
 10
3.730500
 20
6.061579E-02
 30
0.000000
 11
3.667979
 21
-1.904964E-03
 31
0.000000
  0
LINE
  8
Layer0$C$L0
 67
     0
 10
3.933095
 20
0.263211
 30
0.000000
 11
3.838470
 21
0.168586
 31
0.000000
  0
LINE
  8
Layer0$C$L0
 67
     0
 10
3.730500
 20
8.182899E-02
 30
0.000000
 11
3.646766
 21
-1.904964E-03
 31
0.000000
  0
LINE
  8
Layer0$C$L0
 67
     0
 10
3.916925
 20
0.268254
 30
0.000000
 11
3.829282
 21
0.180611
 31
0.000000
  0
LINE
  8
Layer0$C$L0
 67
     0
 10
3.730500
 20
0.103042
 30
0.000000
 11
3.625553
 21
-1.904964E-03
 31
0.000000
  0
LINE
  8
Layer0$C$L0
 67
     0
 10
3.899303
 20
0.271845
 30
0.000000
 11
3.816163
 21
0.188705
 31
0.000000
  0
LINE
  8
Layer0$C$L0
 67
     0
 10
3.730500
 20
0.124255
 30
0.000000
 11
3.604340
 21
-1.904964E-03
 31
0.000000
  0
LINE
  8
Layer0$C$L0
 67
     0
 10
3.880244
 20
0.274000
 30
0.000000
 11
3.799294
 21
0.193049
 31
0.000000
  0
LINE
  8
Layer0$C$L0
 67
     0
 10
3.730724
 20
0.145693
 30
0.000000
 11
3.583126
 21
-1.904964E-03
 31
0.000000
  0
LINE
  8
Layer0$C$L0
 67
     0
 10
3.859807
 20
0.274776
 30
0.000000
 11
3.777565
 21
0.192533
 31
0.000000
  0
LINE
  8
Layer0$C$L0
 67
     0
 10
3.838057
 20
0.274238
 30
0.000000
 11
3.574453
 21
1.063470E-02
 31
0.000000
  0
LINE
  8
Layer0$C$L0
 67
     0
 10
3.814564
 20
0.271959
 30
0.000000
 11
3.574453
 21
3.184790E-02
 31
0.000000
  0
LINE
  8
Layer0$C$L0
 67
     0
 10
3.787749
 20
0.266357
 30
0.000000
 11
3.574453
 21
5.306111E-02
 31
0.000000
  0
LINE
  8
Layer0$C$L0
 67
     0
 10
3.750980
 20
0.250801
 30
0.000000
 11
3.574453
 21
7.427431E-02
 31
0.000000
  0
LINE
  8
Layer0$C$L0
 67
     0
 10
3.712966
 20
0.234001
 30
0.000000
 11
3.574453
 21
9.548751E-02
 31
0.000000
  0
LINE
  8
Layer0$C$L0
 67
     0
 10
3.464335
 20
6.582805E-03
 30
0.000000
 11
3.455847
 21
-1.904964E-03
 31
0.000000
  0
LINE
  8
Layer0$C$L0
 67
     0
 10
3.702233
 20
0.244480
 30
0.000000
 11
3.574453
 21
0.116701
 31
0.000000
  0
LINE
  8
Layer0$C$L0
 67
     0
 10
3.464335
 20
2.779601E-02
 30
0.000000
 11
3.434634
 21
-1.904964E-03
 31
0.000000
  0
LINE
  8
Layer0$C$L0
 67
     0
 10
3.690003
 20
0.253464
 30
0.000000
 11
3.574453
 21
0.137914
 31
0.000000
  0
LINE
  8
Layer0$C$L0
 67
     0
 10
3.464335
 20
4.900921E-02
 30
0.000000
 11
3.413421
 21
-1.904964E-03
 31
0.000000
  0
LINE
  8
Layer0$C$L0
 67
     0
 10
3.676264
 20
0.260938
 30
0.000000
 11
3.574035
 21
0.158709
 31
0.000000
  0
LINE
  8
Layer0$C$L0
 67
     0
 10
3.464335
 20
7.022242E-02
 30
0.000000
 11
3.392208
 21
-1.904964E-03
 31
0.000000
  0
LINE
  8
Layer0$C$L0
 67
     0
 10
3.660873
 20
0.266760
 30
0.000000
 11
3.569251
 21
0.175138
 31
0.000000
  0
LINE
  8
Layer0$C$L0
 67
     0
 10
3.464335
 20
9.143562E-02
 30
0.000000
 11
3.370994
 21
-1.904964E-03
 31
0.000000
  0
LINE
  8
Layer0$C$L0
 67
     0
 10
3.643776
 20
0.270876
 30
0.000000
 11
3.558313
 21
0.185413
 31
0.000000
  0
LINE
  8
Layer0$C$L0
 67
     0
 10
3.464335
 20
0.112649
 30
0.000000
 11
3.349781
 21
-1.904964E-03
 31
0.000000
  0
LINE
  8
Layer0$C$L0
 67
     0
 10
3.625102
 20
0.273416
 30
0.000000
 11
3.543499
 21
0.191812
 31
0.000000
  0
LINE
  8
Layer0$C$L0
 67
     0
 10
3.464335
 20
0.133862
 30
0.000000
 11
3.328568
 21
-1.904964E-03
 31
0.000000
  0
LINE
  8
Layer0$C$L0
 67
     0
 10
3.605102
 20
0.274629
 30
0.000000
 11
3.524476
 21
0.194003
 31
0.000000
  0
LINE
  8
Layer0$C$L0
 67
     0
 10
3.467026
 20
0.157766
 30
0.000000
 11
3.308421
 21
-8.388394E-04
 31
0.000000
  0
LINE
  8
Layer0$C$L0
 67
     0
 10
3.583906
 20
0.274647
 30
0.000000
 11
3.499248
 21
0.189988
 31
0.000000
  0
LINE
  8
Layer0$C$L0
 67
     0
 10
3.561294
 20
0.273248
 30
0.000000
 11
3.308421
 21
2.037436E-02
 31
0.000000
  0
LINE
  8
Layer0$C$L0
 67
     0
 10
3.536311
 20
0.269478
 30
0.000000
 11
3.308421
 21
4.158757E-02
 31
0.000000
  0
LINE
  8
Layer0$C$L0
 67
     0
 10
3.505919
 20
0.260299
 30
0.000000
 11
3.308421
 21
6.280077E-02
 31
0.000000
  0
LINE
  8
Layer0$C$L0
 67
     0
 10
3.453634
 20
0.229227
 30
0.000000
 11
3.308421
 21
8.401398E-02
 31
0.000000
  0
LINE
  8
Layer0$C$L0
 67
     0
 10
3.453634
 20
0.250440
 30
0.000000
 11
3.308421
 21
0.105227
 31
0.000000
  0
LINE
  8
Layer0$C$L0
 67
     0
 10
3.450591
 20
0.268610
 30
0.000000
 11
3.308421
 21
0.126440
 31
0.000000
  0
LINE
  8
Layer0$C$L0
 67
     0
 10
3.429377
 20
0.268610
 30
0.000000
 11
3.308421
 21
0.147654
 31
0.000000
  0
LINE
  8
Layer0$C$L0
 67
     0
 10
3.408164
 20
0.268610
 30
0.000000
 11
3.308421
 21
0.168867
 31
0.000000
  0
LINE
  8
Layer0$C$L0
 67
     0
 10
3.386951
 20
0.268610
 30
0.000000
 11
3.308421
 21
0.190080
 31
0.000000
  0
LINE
  8
Layer0$C$L0
 67
     0
 10
3.133156
 20
3.602849E-02
 30
0.000000
 11
3.095223
 21
-1.904964E-03
 31
0.000000
  0
LINE
  8
Layer0$C$L0
 67
     0
 10
3.365738
 20
0.268610
 30
0.000000
 11
3.308421
 21
0.211293
 31
0.000000
  0
LINE
  8
Layer0$C$L0
 67
     0
 10
3.159372
 20
8.345718E-02
 30
0.000000
 11
3.074009
 21
-1.904964E-03
 31
0.000000
  0
LINE
  8
Layer0$C$L0
 67
     0
 10
3.344524
 20
0.268610
 30
0.000000
 11
3.308421
 21
0.232506
 31
0.000000
  0
LINE
  8
Layer0$C$L0
 67
     0
 10
3.185587
 20
0.130886
 30
0.000000
 11
3.052796
 21
-1.904964E-03
 31
0.000000
  0
LINE
  8
Layer0$C$L0
 67
     0
 10
3.323311
 20
0.268610
 30
0.000000
 11
3.308421
 21
0.253720
 31
0.000000
  0
LINE
  8
Layer0$C$L0
 67
     0
 10
3.211803
 20
0.178315
 30
0.000000
 11
3.031583
 21
-1.904964E-03
 31
0.000000
  0
LINE
  8
Layer0$C$L0
 67
     0
 10
3.238018
 20
0.225743
 30
0.000000
 11
3.010370
 21
-1.904964E-03
 31
0.000000
  0
LINE
  8
Layer0$C$L0
 67
     0
 10
3.259672
 20
0.268610
 30
0.000000
 11
2.989157
 21
-1.904964E-03
 31
0.000000
  0
LINE
  8
Layer0$C$L0
 67
     0
 10
3.238458
 20
0.268610
 30
0.000000
 11
2.971892
 21
2.043703E-03
 31
0.000000
  0
LINE
  8
Layer0$C$L0
 67
     0
 10
3.046818
 20
9.818280E-02
 30
0.000000
 11
2.964775
 21
1.613944E-02
 31
0.000000
  0
LINE
  8
Layer0$C$L0
 67
     0
 10
3.217245
 20
0.268610
 30
0.000000
 11
3.046821
 21
9.818537E-02
 31
0.000000
  0
LINE
  8
Layer0$C$L0
 67
     0
 10
3.039726
 20
0.112304
 30
0.000000
 11
2.957657
 21
3.023519E-02
 31
0.000000
  0
LINE
  8
Layer0$C$L0
 67
     0
 10
3.196032
 20
0.268610
 30
0.000000
 11
3.060020
 21
0.132598
 31
0.000000
  0
LINE
  8
Layer0$C$L0
 67
     0
 10
3.032635
 20
0.126426
 30
0.000000
 11
2.950540
 21
4.433093E-02
 31
0.000000
  0
LINE
  8
Layer0$C$L0
 67
     0
 10
3.174819
 20
0.268610
 30
0.000000
 11
3.073219
 21
0.167010
 31
0.000000
  0
LINE
  8
Layer0$C$L0
 67
     0
 10
3.025543
 20
0.140547
 30
0.000000
 11
2.943422
 21
5.842667E-02
 31
0.000000
  0
LINE
  8
Layer0$C$L0
 67
     0
 10
3.153606
 20
0.268610
 30
0.000000
 11
3.086419
 21
0.201423
 31
0.000000
  0
LINE
  8
Layer0$C$L0
 67
     0
 10
3.018451
 20
0.154669
 30
0.000000
 11
2.936305
 21
7.252241E-02
 31
0.000000
  0
LINE
  8
Layer0$C$L0
 67
     0
 10
3.132392
 20
0.268610
 30
0.000000
 11
3.099618
 21
0.235836
 31
0.000000
  0
LINE
  8
Layer0$C$L0
 67
     0
 10
3.011360
 20
0.168791
 30
0.000000
 11
2.929187
 21
8.661815E-02
 31
0.000000
  0
LINE
  8
Layer0$C$L0
 67
     0
 10
3.004268
 20
0.182912
 30
0.000000
 11
2.922070
 21
0.100714
 31
0.000000
  0
LINE
  8
Layer0$C$L0
 67
     0
 10
2.825578
 20
2.543543E-02
 30
0.000000
 11
2.798238
 21
-1.904964E-03
 31
0.000000
  0
LINE
  8
Layer0$C$L0
 67
     0
 10
2.997177
 20
0.197034
 30
0.000000
 11
2.914953
 21
0.114810
 31
0.000000
  0
LINE
  8
Layer0$C$L0
 67
     0
 10
2.845809
 20
6.687976E-02
 30
0.000000
 11
2.777025
 21
-1.904964E-03
 31
0.000000
  0
LINE
  8
Layer0$C$L0
 67
     0
 10
2.990085
 20
0.211155
 30
0.000000
 11
2.907835
 21
0.128905
 31
0.000000
  0
LINE
  8
Layer0$C$L0
 67
     0
 10
2.866040
 20
0.108324
 30
0.000000
 11
2.755811
 21
-1.904964E-03
 31
0.000000
  0
LINE
  8
Layer0$C$L0
 67
     0
 10
2.982993
 20
0.225277
 30
0.000000
 11
2.900717
 21
0.143001
 31
0.000000
  0
LINE
  8
Layer0$C$L0
 67
     0
 10
2.886272
 20
0.149768
 30
0.000000
 11
2.734598
 21
-1.904964E-03
 31
0.000000
  0
LINE
  8
Layer0$C$L0
 67
     0
 10
2.975902
 20
0.239398
 30
0.000000
 11
2.893600
 21
0.157097
 31
0.000000
  0
LINE
  8
Layer0$C$L0
 67
     0
 10
2.968810
 20
0.253520
 30
0.000000
 11
2.713385
 21
-1.904964E-03
 31
0.000000
  0
LINE
  8
Layer0$C$L0
 67
     0
 10
2.961718
 20
0.267641
 30
0.000000
 11
2.692172
 21
-1.904964E-03
 31
0.000000
  0
LINE
  8
Layer0$C$L0
 67
     0
 10
2.941474
 20
0.268610
 30
0.000000
 11
2.672283
 21
-5.807794E-04
 31
0.000000
  0
LINE
  8
Layer0$C$L0
 67
     0
 10
2.920260
 20
0.268610
 30
0.000000
 11
2.664698
 21
1.304719E-02
 31
0.000000
  0
LINE
  8
Layer0$C$L0
 67
     0
 10
2.735678
 20
0.105241
 30
0.000000
 11
2.657112
 21
2.667516E-02
 31
0.000000
  0
LINE
  8
Layer0$C$L0
 67
     0
 10
2.899047
 20
0.268610
 30
0.000000
 11
2.747570
 21
0.117133
 31
0.000000
  0
LINE
  8
Layer0$C$L0
 67
     0
 10
2.729798
 20
0.120574
 30
0.000000
 11
2.649527
 21
4.030313E-02
 31
0.000000
  0
LINE
  8
Layer0$C$L0
 67
     0
 10
2.877834
 20
0.268610
 30
0.000000
 11
2.767516
 21
0.158292
 31
0.000000
  0
LINE
  8
Layer0$C$L0
 67
     0
 10
2.723917
 20
0.135906
 30
0.000000
 11
2.641942
 21
5.393109E-02
 31
0.000000
  0
LINE
  8
Layer0$C$L0
 67
     0
 10
2.856621
 20
0.268610
 30
0.000000
 11
2.787461
 21
0.199450
 31
0.000000
  0
LINE
  8
Layer0$C$L0
 67
     0
 10
2.718036
 20
0.151239
 30
0.000000
 11
2.634357
 21
6.755906E-02
 31
0.000000
  0
LINE
  8
Layer0$C$L0
 67
     0
 10
2.835408
 20
0.268610
 30
0.000000
 11
2.807407
 21
0.240609
 31
0.000000
  0
LINE
  8
Layer0$C$L0
 67
     0
 10
2.712156
 20
0.166571
 30
0.000000
 11
2.626771
 21
8.118702E-02
 31
0.000000
  0
LINE
  8
Layer0$C$L0
 67
     0
 10
2.706275
 20
0.181904
 30
0.000000
 11
2.619186
 21
9.481499E-02
 31
0.000000
  0
LINE
  8
Layer0$C$L0
 67
     0
 10
2.700394
 20
0.197236
 30
0.000000
 11
2.611601
 21
0.108443
 31
0.000000
  0
LINE
  8
Layer0$C$L0
 67
     0
 10
2.488582
 20
6.637473E-03
 30
0.000000
 11
2.480040
 21
-1.904964E-03
 31
0.000000
  0
LINE
  8
Layer0$C$L0
 67
     0
 10
2.694514
 20
0.212569
 30
0.000000
 11
2.604016
 21
0.122071
 31
0.000000
  0
LINE
  8
Layer0$C$L0
 67
     0
 10
2.480889
 20
2.015780E-02
 30
0.000000
 11
2.458827
 21
-1.904964E-03
 31
0.000000
  0
LINE
  8
Layer0$C$L0
 67
     0
 10
2.688633
 20
0.227902
 30
0.000000
 11
2.596431
 21
0.135699
 31
0.000000
  0
LINE
  8
Layer0$C$L0
 67
     0
 10
2.476180
 20
3.666124E-02
 30
0.000000
 11
2.437613
 21
-1.904964E-03
 31
0.000000
  0
LINE
  8
Layer0$C$L0
 67
     0
 10
2.682753
 20
0.243234
 30
0.000000
 11
2.588845
 21
0.149327
 31
0.000000
  0
LINE
  8
Layer0$C$L0
 67
     0
 10
2.474961
 20
5.665585E-02
 30
0.000000
 11
2.416400
 21
-1.904964E-03
 31
0.000000
  0
LINE
  8
Layer0$C$L0
 67
     0
 10
2.676872
 20
0.258567
 30
0.000000
 11
2.581260
 21
0.162955
 31
0.000000
  0
LINE
  8
Layer0$C$L0
 67
     0
 10
2.474961
 20
7.786906E-02
 30
0.000000
 11
2.395187
 21
-1.904964E-03
 31
0.000000
  0
LINE
  8
Layer0$C$L0
 67
     0
 10
2.665702
 20
0.268610
 30
0.000000
 11
2.573675
 21
0.176583
 31
0.000000
  0
LINE
  8
Layer0$C$L0
 67
     0
 10
2.474961
 20
9.908226E-02
 30
0.000000
 11
2.373974
 21
-1.904964E-03
 31
0.000000
  0
LINE
  8
Layer0$C$L0
 67
     0
 10
2.644489
 20
0.268610
 30
0.000000
 11
2.566090
 21
0.190211
 31
0.000000
  0
LINE
  8
Layer0$C$L0
 67
     0
 10
2.474961
 20
0.120295
 30
0.000000
 11
2.352761
 21
-1.904964E-03
 31
0.000000
  0
LINE
  8
Layer0$C$L0
 67
     0
 10
2.623276
 20
0.268610
 30
0.000000
 11
2.558504
 21
0.203839
 31
0.000000
  0
LINE
  8
Layer0$C$L0
 67
     0
 10
2.474961
 20
0.141509
 30
0.000000
 11
2.341056
 21
7.603255E-03
 31
0.000000
  0
LINE
  8
Layer0$C$L0
 67
     0
 10
2.602062
 20
0.268610
 30
0.000000
 11
2.550919
 21
0.217467
 31
0.000000
  0
LINE
  8
Layer0$C$L0
 67
     0
 10
2.474961
 20
0.162722
 30
0.000000
 11
2.334127
 21
2.188834E-02
 31
0.000000
  0
LINE
  8
Layer0$C$L0
 67
     0
 10
2.580849
 20
0.268610
 30
0.000000
 11
2.543334
 21
0.231095
 31
0.000000
  0
LINE
  8
Layer0$C$L0
 67
     0
 10
2.474423
 20
0.183397
 30
0.000000
 11
2.309371
 21
1.834554E-02
 31
0.000000
  0
LINE
  8
Layer0$C$L0
 67
     0
 10
2.559636
 20
0.268610
 30
0.000000
 11
2.535749
 21
0.244723
 31
0.000000
  0
LINE
  8
Layer0$C$L0
 67
     0
 10
2.470280
 20
0.200467
 30
0.000000
 11
2.273907
 21
4.094074E-03
 31
0.000000
  0
LINE
  8
Layer0$C$L0
 67
     0
 10
2.538423
 20
0.268610
 30
0.000000
 11
2.528163
 21
0.258351
 31
0.000000
  0
LINE
  8
Layer0$C$L0
 67
     0
 10
2.463715
 20
0.215115
 30
0.000000
 11
2.246341
 21
-2.258229E-03
 31
0.000000
  0
LINE
  8
Layer0$C$L0
 67
     0
 10
2.287645
 20
6.025879E-02
 30
0.000000
 11
2.221704
 21
-5.682634E-03
 31
0.000000
  0
LINE
  8
Layer0$C$L0
 67
     0
 10
2.455273
 20
0.227887
 30
0.000000
 11
2.320870
 21
9.348347E-02
 31
0.000000
  0
LINE
  8
Layer0$C$L0
 67
     0
 10
2.257690
 20
5.151713E-02
 30
0.000000
 11
2.198733
 21
-7.440345E-03
 31
0.000000
  0
LINE
  8
Layer0$C$L0
 67
     0
 10
2.444896
 20
0.238723
 30
0.000000
 11
2.322994
 21
0.116821
 31
0.000000
  0
LINE
  8
Layer0$C$L0
 67
     0
 10
2.234535
 20
4.957470E-02
 30
0.000000
 11
2.176969
 21
-7.990595E-03
 31
0.000000
  0
LINE
  8
Layer0$C$L0
 67
     0
 10
2.432499
 20
0.247540
 30
0.000000
 11
2.308084
 21
0.123124
 31
0.000000
  0
LINE
  8
Layer0$C$L0
 67
     0
 10
2.214694
 20
5.094712E-02
 30
0.000000
 11
2.156170
 21
-7.577075E-03
 31
0.000000
  0
LINE
  8
Layer0$C$L0
 67
     0
 10
2.418497
 20
0.254750
 30
0.000000
 11
2.281286
 21
0.117539
 31
0.000000
  0
LINE
  8
Layer0$C$L0
 67
     0
 10
2.198405
 20
5.587134E-02
 30
0.000000
 11
2.136378
 21
-6.155835E-03
 31
0.000000
  0
LINE
  8
Layer0$C$L0
 67
     0
 10
2.320669
 20
0.178136
 30
0.000000
 11
2.255377
 21
0.112843
 31
0.000000
  0
LINE
  8
Layer0$C$L0
 67
     0
 10
2.403146
 20
0.260613
 30
0.000000
 11
2.322865
 21
0.180332
 31
0.000000
  0
LINE
  8
Layer0$C$L0
 67
     0
 10
2.186731
 20
6.541029E-02
 30
0.000000
 11
2.117682
 21
-3.638454E-03
 31
0.000000
  0
LINE
  8
Layer0$C$L0
 67
     0
 10
2.292711
 20
0.171391
 30
0.000000
 11
2.228851
 21
0.107530
 31
0.000000
  0
LINE
  8
Layer0$C$L0
 67
     0
 10
2.386526
 20
0.265206
 30
0.000000
 11
2.318686
 21
0.197366
 31
0.000000
  0
LINE
  8
Layer0$C$L0
 67
     0
 10
2.184497
 20
8.439031E-02
 30
0.000000
 11
2.100223
 21
1.162239E-04
 31
0.000000
  0
LINE
  8
Layer0$C$L0
 67
     0
 10
2.266145
 20
0.166038
 30
0.000000
 11
2.197304
 21
9.719721E-02
 31
0.000000
  0
LINE
  8
Layer0$C$L0
 67
     0
 10
2.368665
 20
0.268558
 30
0.000000
 11
2.307539
 21
0.207432
 31
0.000000
  0
LINE
  8
Layer0$C$L0
 67
     0
 10
2.240910
 20
0.162016
 30
0.000000
 11
2.084132
 21
5.238494E-03
 31
0.000000
  0
LINE
  8
Layer0$C$L0
 67
     0
 10
2.349780
 20
0.270886
 30
0.000000
 11
2.290735
 21
0.211841
 31
0.000000
  0
LINE
  8
Layer0$C$L0
 67
     0
 10
2.216072
 20
0.158391
 30
0.000000
 11
2.069463
 21
1.178205E-02
 31
0.000000
  0
LINE
  8
Layer0$C$L0
 67
     0
 10
2.330147
 20
0.272466
 30
0.000000
 11
2.270805
 21
0.213124
 31
0.000000
  0
LINE
  8
Layer0$C$L0
 67
     0
 10
2.191476
 20
0.155008
 30
0.000000
 11
2.056265
 21
1.979748E-02
 31
0.000000
  0
LINE
  8
Layer0$C$L0
 67
     0
 10
2.310033
 20
0.273565
 30
0.000000
 11
2.248919
 21
0.212451
 31
0.000000
  0
LINE
  8
Layer0$C$L0
 67
     0
 10
2.166950
 20
0.151696
 30
0.000000
 11
2.044740
 21
2.948603E-02
 31
0.000000
  0
LINE
  8
Layer0$C$L0
 67
     0
 10
2.289548
 20
0.274294
 30
0.000000
 11
2.224107
 21
0.208853
 31
0.000000
  0
LINE
  8
Layer0$C$L0
 67
     0
 10
2.142162
 20
0.148121
 30
0.000000
 11
2.035265
 21
4.122386E-02
 31
0.000000
  0
LINE
  8
Layer0$C$L0
 67
     0
 10
2.268742
 20
0.274700
 30
0.000000
 11
2.175930
 21
0.181889
 31
0.000000
  0
LINE
  8
Layer0$C$L0
 67
     0
 10
2.116389
 20
0.143561
 30
0.000000
 11
2.028838
 21
5.600988E-02
 31
0.000000
  0
LINE
  8
Layer0$C$L0
 67
     0
 10
2.247606
 20
0.274778
 30
0.000000
 11
2.156108
 21
0.183280
 31
0.000000
  0
LINE
  8
Layer0$C$L0
 67
     0
 10
1.953205
 20
1.590154E-03
 30
0.000000
 11
1.949710
 21
-1.904964E-03
 31
0.000000
  0
LINE
  8
Layer0$C$L0
 67
     0
 10
2.087851
 20
0.136236
 30
0.000000
 11
2.027278
 21
7.566302E-02
 31
0.000000
  0
LINE
  8
Layer0$C$L0
 67
     0
 10
2.226074
 20
0.274459
 30
0.000000
 11
2.136287
 21
0.184672
 31
0.000000
  0
LINE
  8
Layer0$C$L0
 67
     0
 10
1.953205
 20
2.280336E-02
 30
0.000000
 11
1.928497
 21
-1.904964E-03
 31
0.000000
  0
LINE
  8
Layer0$C$L0
 67
     0
 10
2.203915
 20
0.273514
 30
0.000000
 11
2.116465
 21
0.186064
 31
0.000000
  0
LINE
  8
Layer0$C$L0
 67
     0
 10
1.953205
 20
4.401656E-02
 30
0.000000
 11
1.907283
 21
-1.904964E-03
 31
0.000000
  0
LINE
  8
Layer0$C$L0
 67
     0
 10
2.180969
 20
0.271781
 30
0.000000
 11
2.096644
 21
0.187455
 31
0.000000
  0
LINE
  8
Layer0$C$L0
 67
     0
 10
1.953205
 20
6.522977E-02
 30
0.000000
 11
1.886070
 21
-1.904964E-03
 31
0.000000
  0
LINE
  8
Layer0$C$L0
 67
     0
 10
2.157002
 20
0.269027
 30
0.000000
 11
2.076822
 21
0.188847
 31
0.000000
  0
LINE
  8
Layer0$C$L0
 67
     0
 10
1.953205
 20
8.644297E-02
 30
0.000000
 11
1.864857
 21
-1.904964E-03
 31
0.000000
  0
LINE
  8
Layer0$C$L0
 67
     0
 10
2.131268
 20
0.264506
 30
0.000000
 11
2.057000
 21
0.190238
 31
0.000000
  0
LINE
  8
Layer0$C$L0
 67
     0
 10
1.953205
 20
0.107656
 30
0.000000
 11
1.843644
 21
-1.904964E-03
 31
0.000000
  0
LINE
  8
Layer0$C$L0
 67
     0
 10
2.100227
 20
0.254678
 30
0.000000
 11
2.040437
 21
0.194888
 31
0.000000
  0
LINE
  8
Layer0$C$L0
 67
     0
 10
1.953205
 20
0.128869
 30
0.000000
 11
1.822430
 21
-1.904964E-03
 31
0.000000
  0
LINE
  8
Layer0$C$L0
 67
     0
 10
1.953205
 20
0.150083
 30
0.000000
 11
1.801217
 21
-1.904964E-03
 31
0.000000
  0
LINE
  8
Layer0$C$L0
 67
     0
 10
1.953231
 20
0.171322
 30
0.000000
 11
1.796894
 21
1.498498E-02
 31
0.000000
  0
LINE
  8
Layer0$C$L0
 67
     0
 10
1.951751
 20
0.191055
 30
0.000000
 11
1.796894
 21
3.619819E-02
 31
0.000000
  0
LINE
  8
Layer0$C$L0
 67
     0
 10
1.947440
 20
0.207958
 30
0.000000
 11
1.796894
 21
5.741139E-02
 31
0.000000
  0
LINE
  8
Layer0$C$L0
 67
     0
 10
1.940897
 20
0.222627
 30
0.000000
 11
1.796894
 21
7.862460E-02
 31
0.000000
  0
LINE
  8
Layer0$C$L0
 67
     0
 10
1.932145
 20
0.235089
 30
0.000000
 11
1.796894
 21
9.983780E-02
 31
0.000000
  0
LINE
  8
Layer0$C$L0
 67
     0
 10
1.679598
 20
3.754783E-03
 30
0.000000
 11
1.673938
 21
-1.904964E-03
 31
0.000000
  0
LINE
  8
Layer0$C$L0
 67
     0
 10
1.921379
 20
0.245536
 30
0.000000
 11
1.796894
 21
0.121051
 31
0.000000
  0
LINE
  8
Layer0$C$L0
 67
     0
 10
1.679598
 20
2.496799E-02
 30
0.000000
 11
1.652725
 21
-1.904964E-03
 31
0.000000
  0
LINE
  8
Layer0$C$L0
 67
     0
 10
1.908842
 20
0.254213
 30
0.000000
 11
1.796894
 21
0.142264
 31
0.000000
  0
LINE
  8
Layer0$C$L0
 67
     0
 10
1.679598
 20
4.618119E-02
 30
0.000000
 11
1.631512
 21
-1.904964E-03
 31
0.000000
  0
LINE
  8
Layer0$C$L0
 67
     0
 10
1.894673
 20
0.261256
 30
0.000000
 11
1.795379
 21
0.161962
 31
0.000000
  0
LINE
  8
Layer0$C$L0
 67
     0
 10
1.679598
 20
6.739439E-02
 30
0.000000
 11
1.610299
 21
-1.904964E-03
 31
0.000000
  0
LINE
  8
Layer0$C$L0
 67
     0
 10
1.879014
 20
0.266810
 30
0.000000
 11
1.788909
 21
0.176705
 31
0.000000
  0
LINE
  8
Layer0$C$L0
 67
     0
 10
1.679598
 20
8.860759E-02
 30
0.000000
 11
1.589085
 21
-1.904964E-03
 31
0.000000
  0
LINE
  8
Layer0$C$L0
 67
     0
 10
1.861906
 20
0.270915
 30
0.000000
 11
1.777364
 21
0.186374
 31
0.000000
  0
LINE
  8
Layer0$C$L0
 67
     0
 10
1.679598
 20
0.109821
 30
0.000000
 11
1.567872
 21
-1.904964E-03
 31
0.000000
  0
LINE
  8
Layer0$C$L0
 67
     0
 10
1.843319
 20
0.273542
 30
0.000000
 11
1.761586
 21
0.191809
 31
0.000000
  0
LINE
  8
Layer0$C$L0
 67
     0
 10
1.679533
 20
0.130969
 30
0.000000
 11
1.546659
 21
-1.904964E-03
 31
0.000000
  0
LINE
  8
Layer0$C$L0
 67
     0
 10
1.823268
 20
0.274704
 30
0.000000
 11
1.742037
 21
0.193473
 31
0.000000
  0
LINE
  8
Layer0$C$L0
 67
     0
 10
1.682837
 20
0.155486
 30
0.000000
 11
1.525446
 21
-1.904964E-03
 31
0.000000
  0
LINE
  8
Layer0$C$L0
 67
     0
 10
1.801841
 20
0.274490
 30
0.000000
 11
1.717155
 21
0.189804
 31
0.000000
  0
LINE
  8
Layer0$C$L0
 67
     0
 10
1.778804
 20
0.272667
 30
0.000000
 11
1.523945
 21
1.780741E-02
 31
0.000000
  0
LINE
  8
Layer0$C$L0
 67
     0
 10
1.753045
 20
0.268121
 30
0.000000
 11
1.523945
 21
3.902061E-02
 31
0.000000
  0
LINE
  8
Layer0$C$L0
 67
     0
 10
1.721109
 20
0.257398
 30
0.000000
 11
1.523945
 21
6.023382E-02
 31
0.000000
  0
LINE
  8
Layer0$C$L0
 67
     0
 10
1.679598
 20
0.237100
 30
0.000000
 11
1.523945
 21
8.144702E-02
 31
0.000000
  0
LINE
  8
Layer0$C$L0
 67
     0
 10
1.679598
 20
0.258313
 30
0.000000
 11
1.523945
 21
0.102660
 31
0.000000
  0
LINE
  8
Layer0$C$L0
 67
     0
 10
1.679598
 20
0.279526
 30
0.000000
 11
1.523945
 21
0.123873
 31
0.000000
  0
LINE
  8
Layer0$C$L0
 67
     0
 10
1.679598
 20
0.300740
 30
0.000000
 11
1.523945
 21
0.145087
 31
0.000000
  0
LINE
  8
Layer0$C$L0
 67
     0
 10
1.437023
 20
7.937840E-02
 30
0.000000
 11
1.387895
 21
3.024982E-02
 31
0.000000
  0
LINE
  8
Layer0$C$L0
 67
     0
 10
1.679598
 20
0.321953
 30
0.000000
 11
1.523945
 21
0.166300
 31
0.000000
  0
LINE
  8
Layer0$C$L0
 67
     0
 10
1.446854
 20
0.110422
 30
0.000000
 11
1.348406
 21
1.197446E-02
 31
0.000000
  0
LINE
  8
Layer0$C$L0
 67
     0
 10
1.679598
 20
0.343166
 30
0.000000
 11
1.523945
 21
0.187513
 31
0.000000
  0
LINE
  8
Layer0$C$L0
 67
     0
 10
1.446494
 20
0.131275
 30
0.000000
 11
1.318537
 21
3.318472E-03
 31
0.000000
  0
LINE
  8
Layer0$C$L0
 67
     0
 10
1.679598
 20
0.364379
 30
0.000000
 11
1.523945
 21
0.208726
 31
0.000000
  0
LINE
  8
Layer0$C$L0
 67
     0
 10
1.441996
 20
0.147991
 30
0.000000
 11
1.292193
 21
-1.812714E-03
 31
0.000000
  0
LINE
  8
Layer0$C$L0
 67
     0
 10
1.665572
 20
0.371567
 30
0.000000
 11
1.523945
 21
0.229939
 31
0.000000
  0
LINE
  8
Layer0$C$L0
 67
     0
 10
1.434809
 20
0.162017
 30
0.000000
 11
1.267812
 21
-4.980620E-03
 31
0.000000
  0
LINE
  8
Layer0$C$L0
 67
     0
 10
1.644359
 20
0.371567
 30
0.000000
 11
1.523945
 21
0.251153
 31
0.000000
  0
LINE
  8
Layer0$C$L0
 67
     0
 10
1.425646
 20
0.174067
 30
0.000000
 11
1.244679
 21
-6.900094E-03
 31
0.000000
  0
LINE
  8
Layer0$C$L0
 67
     0
 10
1.623146
 20
0.371567
 30
0.000000
 11
1.523945
 21
0.272366
 31
0.000000
  0
LINE
  8
Layer0$C$L0
 67
     0
 10
1.414840
 20
0.184474
 30
0.000000
 11
1.222458
 21
-7.907831E-03
 31
0.000000
  0
LINE
  8
Layer0$C$L0
 67
     0
 10
1.601933
 20
0.371567
 30
0.000000
 11
1.523945
 21
0.293579
 31
0.000000
  0
LINE
  8
Layer0$C$L0
 67
     0
 10
1.402624
 20
0.193471
 30
0.000000
 11
1.200905
 21
-8.247196E-03
 31
0.000000
  0
LINE
  8
Layer0$C$L0
 67
     0
 10
1.580720
 20
0.371567
 30
0.000000
 11
1.523945
 21
0.314792
 31
0.000000
  0
LINE
  8
Layer0$C$L0
 67
     0
 10
1.389199
 20
0.201260
 30
0.000000
 11
1.179853
 21
-8.086829E-03
 31
0.000000
  0
LINE
  8
Layer0$C$L0
 67
     0
 10
1.559506
 20
0.371567
 30
0.000000
 11
1.523945
 21
0.336005
 31
0.000000
  0
LINE
  8
Layer0$C$L0
 67
     0
 10
1.234736
 20
6.801020E-02
 30
0.000000
 11
1.159258
 21
-7.468002E-03
 31
0.000000
  0
LINE
  8
Layer0$C$L0
 67
     0
 10
1.374811
 20
0.208085
 30
0.000000
 11
1.277726
 21
0.111000
 31
0.000000
  0
LINE
  8
Layer0$C$L0
 67
     0
 10
1.538293
 20
0.371567
 30
0.000000
 11
1.523945
 21
0.357219
 31
0.000000
  0
LINE
  8
Layer0$C$L0
 67
     0
 10
1.210823
 20
6.531045E-02
 30
0.000000
 11
1.139128
 21
-6.384597E-03
 31
0.000000
  0
LINE
  8
Layer0$C$L0
 67
     0
 10
1.359614
 20
0.214101
 30
0.000000
 11
1.268801
 21
0.123288
 31
0.000000
  0
LINE
  8
Layer0$C$L0
 67
     0
 10
1.425743
 20
0.280229
 30
0.000000
 11
1.411442
 21
0.265929
 31
0.000000
  0
LINE
  8
Layer0$C$L0
 67
     0
 10
1.189794
 20
6.549453E-02
 30
0.000000
 11
1.119517
 21
-4.782636E-03
 31
0.000000
  0
LINE
  8
Layer0$C$L0
 67
     0
 10
1.343673
 20
0.219374
 30
0.000000
 11
1.255972
 21
0.131673
 31
0.000000
  0
LINE
  8
Layer0$C$L0
 67
     0
 10
1.419894
 20
0.295594
 30
0.000000
 11
1.389371
 21
0.265071
 31
0.000000
  0
LINE
  8
Layer0$C$L0
 67
     0
 10
1.170818
 20
6.773141E-02
 30
0.000000
 11
1.100483
 21
-2.603690E-03
 31
0.000000
  0
LINE
  8
Layer0$C$L0
 67
     0
 10
1.327101
 20
0.224015
 30
0.000000
 11
1.240507
 21
0.137420
 31
0.000000
  0
LINE
  8
Layer0$C$L0
 67
     0
 10
1.412285
 20
0.309198
 30
0.000000
 11
1.367299
 21
0.264213
 31
0.000000
  0
LINE
  8
Layer0$C$L0
 67
     0
 10
1.153921
 20
7.204732E-02
 30
0.000000
 11
1.082084
 21
2.109188E-04
 31
0.000000
  0
LINE
  8
Layer0$C$L0
 67
     0
 10
1.310048
 20
0.228175
 30
0.000000
 11
1.223707
 21
0.141834
 31
0.000000
  0
LINE
  8
Layer0$C$L0
 67
     0
 10
1.403096
 20
0.321222
 30
0.000000
 11
1.345228
 21
0.263355
 31
0.000000
  0
LINE
  8
Layer0$C$L0
 67
     0
 10
1.139084
 20
7.842416E-02
 30
0.000000
 11
1.064404
 21
3.744283E-03
 31
0.000000
  0
LINE
  8
Layer0$C$L0
 67
     0
 10
1.292635
 20
0.231975
 30
0.000000
 11
1.206097
 21
0.145437
 31
0.000000
  0
LINE
  8
Layer0$C$L0
 67
     0
 10
1.392442
 20
0.331782
 30
0.000000
 11
1.323157
 21
0.262496
 31
0.000000
  0
LINE
  8
Layer0$C$L0
 67
     0
 10
1.126404
 20
8.695740E-02
 30
0.000000
 11
1.047535
 21
8.088051E-03
 31
0.000000
  0
LINE
  8
Layer0$C$L0
 67
     0
 10
1.274947
 20
0.235500
 30
0.000000
 11
1.188007
 21
0.148560
 31
0.000000
  0
LINE
  8
Layer0$C$L0
 67
     0
 10
1.380366
 20
0.340919
 30
0.000000
 11
1.301085
 21
0.261638
 31
0.000000
  0
LINE
  8
Layer0$C$L0
 67
     0
 10
1.116169
 20
9.793525E-02
 30
0.000000
 11
1.031570
 21
1.333580E-02
 31
0.000000
  0
LINE
  8
Layer0$C$L0
 67
     0
 10
1.257036
 20
0.238803
 30
0.000000
 11
1.169704
 21
0.151470
 31
0.000000
  0
LINE
  8
Layer0$C$L0
 67
     0
 10
1.367002
 20
0.348768
 30
0.000000
 11
1.279014
 21
0.260780
 31
0.000000
  0
LINE
  8
Layer0$C$L0
 67
     0
 10
1.108667
 20
0.111647
 30
0.000000
 11
1.016708
 21
1.968794E-02
 31
0.000000
  0
LINE
  8
Layer0$C$L0
 67
     0
 10
1.238927
 20
0.241906
 30
0.000000
 11
1.151439
 21
0.154418
 31
0.000000
  0
LINE
  8
Layer0$C$L0
 67
     0
 10
1.352457
 20
0.355437
 30
0.000000
 11
1.263794
 21
0.266774
 31
0.000000
  0
LINE
  8
Layer0$C$L0
 67
     0
 10
1.103794
 20
0.127986
 30
0.000000
 11
1.003093
 21
2.728599E-02
 31
0.000000
  0
LINE
  8
Layer0$C$L0
 67
     0
 10
1.220631
 20
0.244824
 30
0.000000
 11
1.133367
 21
0.157560
 31
0.000000
  0
LINE
  8
Layer0$C$L0
 67
     0
 10
1.336837
 20
0.361030
 30
0.000000
 11
1.256566
 21
0.280759
 31
0.000000
  0
LINE
  8
Layer0$C$L0
 67
     0
 10
1.082227
 20
0.127633
 30
0.000000
 11
0.990561
 21
3.596697E-02
 31
0.000000
  0
LINE
  8
Layer0$C$L0
 67
     0
 10
1.202209
 20
0.247615
 30
0.000000
 11
1.115609
 21
0.161015
 31
0.000000
  0
LINE
  8
Layer0$C$L0
 67
     0
 10
1.320276
 20
0.365682
 30
0.000000
 11
1.246284
 21
0.291690
 31
0.000000
  0
LINE
  8
Layer0$C$L0
 67
     0
 10
1.060091
 20
0.126710
 30
0.000000
 11
0.979060
 21
4.567884E-02
 31
0.000000
  0
LINE
  8
Layer0$C$L0
 67
     0
 10
1.183753
 20
0.250372
 30
0.000000
 11
1.098218
 21
0.164837
 31
0.000000
  0
LINE
  8
Layer0$C$L0
 67
     0
 10
1.302859
 20
0.369478
 30
0.000000
 11
1.232979
 21
0.299598
 31
0.000000
  0
LINE
  8
Layer0$C$L0
 67
     0
 10
1.037955
 20
0.125787
 30
0.000000
 11
0.968616
 21
5.644819E-02
 31
0.000000
  0
LINE
  8
Layer0$C$L0
 67
     0
 10
1.165537
 20
0.253370
 30
0.000000
 11
1.081214
 21
0.169046
 31
0.000000
  0
LINE
  8
Layer0$C$L0
 67
     0
 10
1.284657
 20
0.372490
 30
0.000000
 11
1.216942
 21
0.304774
 31
0.000000
  0
LINE
  8
Layer0$C$L0
 67
     0
 10
1.015819
 20
0.124865
 30
0.000000
 11
0.959305
 21
6.835070E-02
 31
0.000000
  0
LINE
  8
Layer0$C$L0
 67
     0
 10
1.148151
 20
0.257196
 30
0.000000
 11
1.064651
 21
0.173696
 31
0.000000
  0
LINE
  8
Layer0$C$L0
 67
     0
 10
1.265738
 20
0.374783
 30
0.000000
 11
1.198563
 21
0.307608
 31
0.000000
  0
LINE
  8
Layer0$C$L0
 67
     0
 10
0.993683
 20
0.123942
 30
0.000000
 11
0.951303
 21
8.156210E-02
 31
0.000000
  0
LINE
  8
Layer0$C$L0
 67
     0
 10
1.132741
 20
0.263000
 30
0.000000
 11
1.048608
 21
0.178867
 31
0.000000
  0
LINE
  8
Layer0$C$L0
 67
     0
 10
1.246157
 20
0.376416
 30
0.000000
 11
1.178070
 21
0.308329
 31
0.000000
  0
LINE
  8
Layer0$C$L0
 67
     0
 10
0.971547
 20
0.123019
 30
0.000000
 11
0.944898
 21
9.636942E-02
 31
0.000000
  0
LINE
  8
Layer0$C$L0
 67
     0
 10
1.121636
 20
0.273108
 30
0.000000
 11
1.033211
 21
0.184683
 31
0.000000
  0
LINE
  8
Layer0$C$L0
 67
     0
 10
1.225957
 20
0.377429
 30
0.000000
 11
1.154872
 21
0.306344
 31
0.000000
  0
LINE
  8
Layer0$C$L0
 67
     0
 10
0.949411
 20
0.122096
 30
0.000000
 11
0.940339
 21
0.113024
 31
0.000000
  0
LINE
  8
Layer0$C$L0
 67
     0
 10
1.205192
 20
0.377877
 30
0.000000
 11
1.018608
 21
0.191293
 31
0.000000
  0
LINE
  8
Layer0$C$L0
 67
     0
 10
1.183925
 20
0.377824
 30
0.000000
 11
1.004942
 21
0.198840
 31
0.000000
  0
LINE
  8
Layer0$C$L0
 67
     0
 10
1.162128
 20
0.377240
 30
0.000000
 11
0.992394
 21
0.207505
 31
0.000000
  0
LINE
  8
Layer0$C$L0
 67
     0
 10
1.139679
 20
0.376004
 30
0.000000
 11
0.981232
 21
0.217557
 31
0.000000
  0
LINE
  8
Layer0$C$L0
 67
     0
 10
1.116341
 20
0.373879
 30
0.000000
 11
0.971768
 21
0.229306
 31
0.000000
  0
LINE
  8
Layer0$C$L0
 67
     0
 10
1.091647
 20
0.370398
 30
0.000000
 11
0.964499
 21
0.243250
 31
0.000000
  0
LINE
  8
Layer0$C$L0
 67
     0
 10
1.064521
 20
0.364486
 30
0.000000
 11
0.960357
 21
0.260321
 31
0.000000
  0
LINE
  8
Layer0$C$L0
 67
     0
 10
1.032298
 20
0.353476
 30
0.000000
 11
0.961449
 21
0.282626
 31
0.000000
  0
ENDBLK
  8
Layer0$C$L0
  0
BLOCK
  8
Layer0$C$L0
  2
*X2
 70
     1
 10
0.000000
 20
0.000000
  0
LINE
  8
Layer0$C$L0
 67
     0
 10
3.531619
 20
0.455705
 30
0.000000
 11
3.543748
 21
0.467833
 31
0.000000
  0
LINE
  8
Layer0$C$L0
 67
     0
 10
3.543748
 20
0.489047
 30
0.000000
 11
3.510406
 21
0.455705
 31
0.000000
  0
LINE
  8
Layer0$C$L0
 67
     0
 10
3.489193
 20
0.455705
 30
0.000000
 11
3.543748
 21
0.510260
 31
0.000000
  0
LINE
  8
Layer0$C$L0
 67
     0
 10
3.538759
 20
0.526484
 30
0.000000
 11
3.467980
 21
0.455705
 31
0.000000
  0
LINE
  8
Layer0$C$L0
 67
     0
 10
3.446767
 20
0.455705
 30
0.000000
 11
3.517546
 21
0.526484
 31
0.000000
  0
LINE
  8
Layer0$C$L0
 67
     0
 10
3.496333
 20
0.526484
 30
0.000000
 11
3.425553
 21
0.455705
 31
0.000000
  0
LINE
  8
Layer0$C$L0
 67
     0
 10
3.404340
 20
0.455705
 30
0.000000
 11
3.475119
 21
0.526484
 31
0.000000
  0
LINE
  8
Layer0$C$L0
 67
     0
 10
3.453906
 20
0.526484
 30
0.000000
 11
3.383127
 21
0.455705
 31
0.000000
  0
LINE
  8
Layer0$C$L0
 67
     0
 10
3.361914
 20
0.455705
 30
0.000000
 11
3.432693
 21
0.526484
 31
0.000000
  0
LINE
  8
Layer0$C$L0
 67
     0
 10
3.411480
 20
0.526484
 30
0.000000
 11
3.340701
 21
0.455705
 31
0.000000
  0
LINE
  8
Layer0$C$L0
 67
     0
 10
3.319487
 20
0.455705
 30
0.000000
 11
3.390267
 21
0.526484
 31
0.000000
  0
LINE
  8
Layer0$C$L0
 67
     0
 10
3.531370
 20
0.667587
 30
0.000000
 11
3.524912
 21
0.661130
 31
0.000000
  0
LINE
  8
Layer0$C$L0
 67
     0
 10
3.369053
 20
0.526484
 30
0.000000
 11
3.298274
 21
0.455705
 31
0.000000
  0
LINE
  8
Layer0$C$L0
 67
     0
 10
3.531370
 20
0.688801
 30
0.000000
 11
3.455499
 21
0.612930
 31
0.000000
  0
LINE
  8
Layer0$C$L0
 67
     0
 10
3.347840
 20
0.526484
 30
0.000000
 11
3.277061
 21
0.455705
 31
0.000000
  0
LINE
  8
Layer0$C$L0
 67
     0
 10
3.531370
 20
0.710014
 30
0.000000
 11
3.386086
 21
0.564730
 31
0.000000
  0
LINE
  8
Layer0$C$L0
 67
     0
 10
3.526364
 20
0.726221
 30
0.000000
 11
3.255848
 21
0.455705
 31
0.000000
  0
LINE
  8
Layer0$C$L0
 67
     0
 10
3.505151
 20
0.726221
 30
0.000000
 11
3.234635
 21
0.455705
 31
0.000000
  0
LINE
  8
Layer0$C$L0
 67
     0
 10
3.483938
 20
0.726221
 30
0.000000
 11
3.213421
 21
0.455705
 31
0.000000
  0
LINE
  8
Layer0$C$L0
 67
     0
 10
3.462724
 20
0.726221
 30
0.000000
 11
3.192208
 21
0.455705
 31
0.000000
  0
LINE
  8
Layer0$C$L0
 67
     0
 10
3.441511
 20
0.726221
 30
0.000000
 11
3.170995
 21
0.455705
 31
0.000000
  0
LINE
  8
Layer0$C$L0
 67
     0
 10
3.420298
 20
0.726221
 30
0.000000
 11
3.149782
 21
0.455705
 31
0.000000
  0
LINE
  8
Layer0$C$L0
 67
     0
 10
3.305610
 20
0.632746
 30
0.000000
 11
3.148126
 21
0.475262
 31
0.000000
  0
LINE
  8
Layer0$C$L0
 67
     0
 10
3.399085
 20
0.726221
 30
0.000000
 11
3.328305
 21
0.655441
 31
0.000000
  0
LINE
  8
Layer0$C$L0
 67
     0
 10
3.235513
 20
0.583862
 30
0.000000
 11
3.148126
 21
0.496475
 31
0.000000
  0
LINE
  8
Layer0$C$L0
 67
     0
 10
3.377872
 20
0.726221
 30
0.000000
 11
3.307091
 21
0.655441
 31
0.000000
  0
LINE
  8
Layer0$C$L0
 67
     0
 10
3.099456
 20
0.469019
 30
0.000000
 11
3.086142
 21
0.455705
 31
0.000000
  0
LINE
  8
Layer0$C$L0
 67
     0
 10
3.165416
 20
0.534978
 30
0.000000
 11
3.148126
 21
0.517689
 31
0.000000
  0
LINE
  8
Layer0$C$L0
 67
     0
 10
3.356658
 20
0.726221
 30
0.000000
 11
3.285878
 21
0.655441
 31
0.000000
  0
LINE
  8
Layer0$C$L0
 67
     0
 10
3.092606
 20
0.483382
 30
0.000000
 11
3.064929
 21
0.455705
 31
0.000000
  0
LINE
  8
Layer0$C$L0
 67
     0
 10
3.335445
 20
0.726221
 30
0.000000
 11
3.264665
 21
0.655441
 31
0.000000
  0
LINE
  8
Layer0$C$L0
 67
     0
 10
3.089457
 20
0.501446
 30
0.000000
 11
3.043716
 21
0.455705
 31
0.000000
  0
LINE
  8
Layer0$C$L0
 67
     0
 10
3.314232
 20
0.726221
 30
0.000000
 11
3.243452
 21
0.655441
 31
0.000000
  0
LINE
  8
Layer0$C$L0
 67
     0
 10
3.089039
 20
0.522241
 30
0.000000
 11
3.022503
 21
0.455705
 31
0.000000
  0
LINE
  8
Layer0$C$L0
 67
     0
 10
3.293019
 20
0.726221
 30
0.000000
 11
3.222239
 21
0.655441
 31
0.000000
  0
LINE
  8
Layer0$C$L0
 67
     0
 10
3.089039
 20
0.543455
 30
0.000000
 11
3.001289
 21
0.455705
 31
0.000000
  0
LINE
  8
Layer0$C$L0
 67
     0
 10
3.271805
 20
0.726221
 30
0.000000
 11
3.201025
 21
0.655441
 31
0.000000
  0
LINE
  8
Layer0$C$L0
 67
     0
 10
3.089039
 20
0.564668
 30
0.000000
 11
2.980076
 21
0.455705
 31
0.000000
  0
LINE
  8
Layer0$C$L0
 67
     0
 10
3.250592
 20
0.726221
 30
0.000000
 11
3.179812
 21
0.655441
 31
0.000000
  0
LINE
  8
Layer0$C$L0
 67
     0
 10
3.089039
 20
0.585881
 30
0.000000
 11
2.962459
 21
0.459301
 31
0.000000
  0
LINE
  8
Layer0$C$L0
 67
     0
 10
3.229379
 20
0.726221
 30
0.000000
 11
3.163189
 21
0.660031
 31
0.000000
  0
LINE
  8
Layer0$C$L0
 67
     0
 10
3.089039
 20
0.607094
 30
0.000000
 11
2.953958
 21
0.472013
 31
0.000000
  0
LINE
  8
Layer0$C$L0
 67
     0
 10
3.208166
 20
0.726221
 30
0.000000
 11
3.163189
 21
0.681244
 31
0.000000
  0
LINE
  8
Layer0$C$L0
 67
     0
 10
3.089039
 20
0.628307
 30
0.000000
 11
2.949028
 21
0.488296
 31
0.000000
  0
LINE
  8
Layer0$C$L0
 67
     0
 10
3.186953
 20
0.726221
 30
0.000000
 11
3.163189
 21
0.702457
 31
0.000000
  0
LINE
  8
Layer0$C$L0
 67
     0
 10
3.087374
 20
0.647856
 30
0.000000
 11
2.905856
 21
0.466338
 31
0.000000
  0
LINE
  8
Layer0$C$L0
 67
     0
 10
3.165739
 20
0.726221
 30
0.000000
 11
3.163189
 21
0.723671
 31
0.000000
  0
LINE
  8
Layer0$C$L0
 67
     0
 10
3.082223
 20
0.663918
 30
0.000000
 11
2.875689
 21
0.457384
 31
0.000000
  0
LINE
  8
Layer0$C$L0
 67
     0
 10
3.075031
 20
0.677939
 30
0.000000
 11
2.850067
 21
0.452975
 31
0.000000
  0
LINE
  8
Layer0$C$L0
 67
     0
 10
2.887318
 20
0.511440
 30
0.000000
 11
2.826504
 21
0.450625
 31
0.000000
  0
LINE
  8
Layer0$C$L0
 67
     0
 10
3.065956
 20
0.690077
 30
0.000000
 11
2.940107
 21
0.564228
 31
0.000000
  0
LINE
  8
Layer0$C$L0
 67
     0
 10
2.862134
 20
0.507468
 30
0.000000
 11
2.804351
 21
0.449685
 31
0.000000
  0
LINE
  8
Layer0$C$L0
 67
     0
 10
3.054860
 20
0.700195
 30
0.000000
 11
2.938343
 21
0.583678
 31
0.000000
  0
LINE
  8
Layer0$C$L0
 67
     0
 10
2.841146
 20
0.507693
 30
0.000000
 11
2.783260
 21
0.449808
 31
0.000000
  0
LINE
  8
Layer0$C$L0
 67
     0
 10
3.041848
 20
0.708395
 30
0.000000
 11
2.910912
 21
0.577459
 31
0.000000
  0
LINE
  8
Layer0$C$L0
 67
     0
 10
2.823569
 20
0.511330
 30
0.000000
 11
2.763187
 21
0.450948
 31
0.000000
  0
LINE
  8
Layer0$C$L0
 67
     0
 10
3.027342
 20
0.715103
 30
0.000000
 11
2.884577
 21
0.572337
 31
0.000000
  0
LINE
  8
Layer0$C$L0
 67
     0
 10
2.810289
 20
0.519263
 30
0.000000
 11
2.744230
 21
0.453204
 31
0.000000
  0
LINE
  8
Layer0$C$L0
 67
     0
 10
2.922885
 20
0.631860
 30
0.000000
 11
2.858382
 21
0.567356
 31
0.000000
  0
LINE
  8
Layer0$C$L0
 67
     0
 10
3.011510
 20
0.720484
 30
0.000000
 11
2.942942
 21
0.651916
 31
0.000000
  0
LINE
  8
Layer0$C$L0
 67
     0
 10
2.803451
 20
0.533638
 30
0.000000
 11
2.726509
 21
0.456697
 31
0.000000
  0
LINE
  8
Layer0$C$L0
 67
     0
 10
2.895519
 20
0.625706
 30
0.000000
 11
2.829888
 21
0.560075
 31
0.000000
  0
LINE
  8
Layer0$C$L0
 67
     0
 10
2.994370
 20
0.724557
 30
0.000000
 11
2.934641
 21
0.664828
 31
0.000000
  0
LINE
  8
Layer0$C$L0
 67
     0
 10
2.869720
 20
0.621120
 30
0.000000
 11
2.710175
 21
0.461575
 31
0.000000
  0
LINE
  8
Layer0$C$L0
 67
     0
 10
2.976031
 20
0.727431
 30
0.000000
 11
2.920654
 21
0.672054
 31
0.000000
  0
LINE
  8
Layer0$C$L0
 67
     0
 10
2.844688
 20
0.617302
 30
0.000000
 11
2.695292
 21
0.467906
 31
0.000000
  0
LINE
  8
Layer0$C$L0
 67
     0
 10
2.956773
 20
0.729386
 30
0.000000
 11
2.902567
 21
0.675181
 31
0.000000
  0
LINE
  8
Layer0$C$L0
 67
     0
 10
2.819920
 20
0.613747
 30
0.000000
 11
2.681897
 21
0.475724
 31
0.000000
  0
LINE
  8
Layer0$C$L0
 67
     0
 10
2.936890
 20
0.730716
 30
0.000000
 11
2.881878
 21
0.675705
 31
0.000000
  0
LINE
  8
Layer0$C$L0
 67
     0
 10
2.795320
 20
0.610360
 30
0.000000
 11
2.670150
 21
0.485190
 31
0.000000
  0
LINE
  8
Layer0$C$L0
 67
     0
 10
2.916583
 20
0.731623
 30
0.000000
 11
2.859189
 21
0.674229
 31
0.000000
  0
LINE
  8
Layer0$C$L0
 67
     0
 10
2.770564
 20
0.606817
 30
0.000000
 11
2.660382
 21
0.496635
 31
0.000000
  0
LINE
  8
Layer0$C$L0
 67
     0
 10
2.895925
 20
0.732178
 30
0.000000
 11
2.831669
 21
0.667922
 31
0.000000
  0
LINE
  8
Layer0$C$L0
 67
     0
 10
2.745062
 20
0.602528
 30
0.000000
 11
2.653432
 21
0.510898
 31
0.000000
  0
LINE
  8
Layer0$C$L0
 67
     0
 10
2.874931
 20
0.732397
 30
0.000000
 11
2.787682
 21
0.645149
 31
0.000000
  0
LINE
  8
Layer0$C$L0
 67
     0
 10
2.717311
 20
0.595991
 30
0.000000
 11
2.650939
 21
0.529618
 31
0.000000
  0
LINE
  8
Layer0$C$L0
 67
     0
 10
2.853569
 20
0.732248
 30
0.000000
 11
2.767890
 21
0.646569
 31
0.000000
  0
LINE
  8
Layer0$C$L0
 67
     0
 10
2.679499
 20
0.579392
 30
0.000000
 11
2.660540
 21
0.560433
 31
0.000000
  0
LINE
  8
Layer0$C$L0
 67
     0
 10
2.831649
 20
0.731542
 30
0.000000
 11
2.748097
 21
0.647990
 31
0.000000
  0
LINE
  8
Layer0$C$L0
 67
     0
 10
2.808950
 20
0.730056
 30
0.000000
 11
2.728305
 21
0.649411
 31
0.000000
  0
LINE
  8
Layer0$C$L0
 67
     0
 10
2.785289
 20
0.727608
 30
0.000000
 11
2.708512
 21
0.650831
 31
0.000000
  0
LINE
  8
Layer0$C$L0
 67
     0
 10
2.760115
 20
0.723648
 30
0.000000
 11
2.688720
 21
0.652252
 31
0.000000
  0
LINE
  8
Layer0$C$L0
 67
     0
 10
2.730878
 20
0.715624
 30
0.000000
 11
2.668927
 21
0.653673
 31
0.000000
  0
LINE
  8
Layer0$C$L0
 67
     0
 10
2.470850
 20
0.476809
 30
0.000000
 11
2.449746
 21
0.455705
 31
0.000000
  0
LINE
  8
Layer0$C$L0
 67
     0
 10
2.470850
 20
0.498022
 30
0.000000
 11
2.428533
 21
0.455705
 31
0.000000
  0
LINE
  8
Layer0$C$L0
 67
     0
 10
2.470850
 20
0.519235
 30
0.000000
 11
2.407320
 21
0.455705
 31
0.000000
  0
LINE
  8
Layer0$C$L0
 67
     0
 10
2.470850
 20
0.540448
 30
0.000000
 11
2.386106
 21
0.455705
 31
0.000000
  0
LINE
  8
Layer0$C$L0
 67
     0
 10
2.598834
 20
0.668433
 30
0.000000
 11
2.576546
 21
0.646144
 31
0.000000
  0
LINE
  8
Layer0$C$L0
 67
     0
 10
2.470967
 20
0.561779
 30
0.000000
 11
2.364893
 21
0.455705
 31
0.000000
  0
LINE
  8
Layer0$C$L0
 67
     0
 10
2.628161
 20
0.718973
 30
0.000000
 11
2.559188
 21
0.649999
 31
0.000000
  0
LINE
  8
Layer0$C$L0
 67
     0
 10
2.473558
 20
0.585583
 30
0.000000
 11
2.343680
 21
0.455705
 31
0.000000
  0
LINE
  8
Layer0$C$L0
 67
     0
 10
2.612037
 20
0.724062
 30
0.000000
 11
2.539853
 21
0.651878
 31
0.000000
  0
LINE
  8
Layer0$C$L0
 67
     0
 10
2.481300
 20
0.614538
 30
0.000000
 11
2.322467
 21
0.455705
 31
0.000000
  0
LINE
  8
Layer0$C$L0
 67
     0
 10
2.594993
 20
0.728231
 30
0.000000
 11
2.514487
 21
0.647725
 31
0.000000
  0
LINE
  8
Layer0$C$L0
 67
     0
 10
2.576754
 20
0.731206
 30
0.000000
 11
2.317961
 21
0.472412
 31
0.000000
  0
LINE
  8
Layer0$C$L0
 67
     0
 10
2.556730
 20
0.732394
 30
0.000000
 11
2.317961
 21
0.493625
 31
0.000000
  0
LINE
  8
Layer0$C$L0
 67
     0
 10
2.533939
 20
0.730816
 30
0.000000
 11
2.317961
 21
0.514839
 31
0.000000
  0
LINE
  8
Layer0$C$L0
 67
     0
 10
2.503962
 20
0.722053
 30
0.000000
 11
2.317961
 21
0.536052
 31
0.000000
  0
LINE
  8
Layer0$C$L0
 67
     0
 10
2.460386
 20
0.699690
 30
0.000000
 11
2.317961
 21
0.557265
 31
0.000000
  0
LINE
  8
Layer0$C$L0
 67
     0
 10
2.460386
 20
0.720903
 30
0.000000
 11
2.317961
 21
0.578478
 31
0.000000
  0
LINE
  8
Layer0$C$L0
 67
     0
 10
2.444490
 20
0.726221
 30
0.000000
 11
2.317961
 21
0.599692
 31
0.000000
  0
LINE
  8
Layer0$C$L0
 67
     0
 10
2.423277
 20
0.726221
 30
0.000000
 11
2.317961
 21
0.620905
 31
0.000000
  0
LINE
  8
Layer0$C$L0
 67
     0
 10
2.402064
 20
0.726221
 30
0.000000
 11
2.317961
 21
0.642118
 31
0.000000
  0
LINE
  8
Layer0$C$L0
 67
     0
 10
2.380851
 20
0.726221
 30
0.000000
 11
2.317961
 21
0.663331
 31
0.000000
  0
LINE
  8
Layer0$C$L0
 67
     0
 10
2.098712
 20
0.465295
 30
0.000000
 11
2.089122
 21
0.455705
 31
0.000000
  0
LINE
  8
Layer0$C$L0
 67
     0
 10
2.359638
 20
0.726221
 30
0.000000
 11
2.317961
 21
0.684544
 31
0.000000
  0
LINE
  8
Layer0$C$L0
 67
     0
 10
2.098712
 20
0.486509
 30
0.000000
 11
2.067908
 21
0.455705
 31
0.000000
  0
LINE
  8
Layer0$C$L0
 67
     0
 10
2.338424
 20
0.726221
 30
0.000000
 11
2.317961
 21
0.705757
 31
0.000000
  0
LINE
  8
Layer0$C$L0
 67
     0
 10
2.098712
 20
0.507722
 30
0.000000
 11
2.046695
 21
0.455705
 31
0.000000
  0
LINE
  8
Layer0$C$L0
 67
     0
 10
2.098712
 20
0.528935
 30
0.000000
 11
2.025482
 21
0.455705
 31
0.000000
  0
LINE
  8
Layer0$C$L0
 67
     0
 10
2.098619
 20
0.550056
 30
0.000000
 11
2.004269
 21
0.455705
 31
0.000000
  0
LINE
  8
Layer0$C$L0
 67
     0
 10
2.243726
 20
0.695162
 30
0.000000
 11
2.196607
 21
0.648043
 31
0.000000
  0
LINE
  8
Layer0$C$L0
 67
     0
 10
2.099643
 20
0.572292
 30
0.000000
 11
1.983056
 21
0.455705
 31
0.000000
  0
LINE
  8
Layer0$C$L0
 67
     0
 10
2.248762
 20
0.721412
 30
0.000000
 11
2.178595
 21
0.651244
 31
0.000000
  0
LINE
  8
Layer0$C$L0
 67
     0
 10
2.103786
 20
0.597649
 30
0.000000
 11
1.961842
 21
0.455705
 31
0.000000
  0
LINE
  8
Layer0$C$L0
 67
     0
 10
2.232226
 20
0.726088
 30
0.000000
 11
2.157379
 21
0.651241
 31
0.000000
  0
LINE
  8
Layer0$C$L0
 67
     0
 10
2.214695
 20
0.729771
 30
0.000000
 11
1.945819
 21
0.460895
 31
0.000000
  0
LINE
  8
Layer0$C$L0
 67
     0
 10
2.195721
 20
0.732010
 30
0.000000
 11
1.945819
 21
0.482108
 31
0.000000
  0
LINE
  8
Layer0$C$L0
 67
     0
 10
2.174619
 20
0.732121
 30
0.000000
 11
1.945819
 21
0.503321
 31
0.000000
  0
LINE
  8
Layer0$C$L0
 67
     0
 10
2.149714
 20
0.728430
 30
0.000000
 11
1.945819
 21
0.524534
 31
0.000000
  0
LINE
  8
Layer0$C$L0
 67
     0
 10
2.088248
 20
0.688177
 30
0.000000
 11
1.945819
 21
0.545747
 31
0.000000
  0
LINE
  8
Layer0$C$L0
 67
     0
 10
2.088248
 20
0.709390
 30
0.000000
 11
1.945819
 21
0.566961
 31
0.000000
  0
LINE
  8
Layer0$C$L0
 67
     0
 10
2.083866
 20
0.726221
 30
0.000000
 11
1.945819
 21
0.588174
 31
0.000000
  0
LINE
  8
Layer0$C$L0
 67
     0
 10
1.853005
 20
0.516573
 30
0.000000
 11
1.825704
 21
0.489272
 31
0.000000
  0
LINE
  8
Layer0$C$L0
 67
     0
 10
2.062653
 20
0.726221
 30
0.000000
 11
1.945819
 21
0.609387
 31
0.000000
  0
LINE
  8
Layer0$C$L0
 67
     0
 10
1.833042
 20
0.517823
 30
0.000000
 11
1.782293
 21
0.467074
 31
0.000000
  0
LINE
  8
Layer0$C$L0
 67
     0
 10
2.041440
 20
0.726221
 30
0.000000
 11
1.945819
 21
0.630600
 31
0.000000
  0
LINE
  8
Layer0$C$L0
 67
     0
 10
1.813078
 20
0.519073
 30
0.000000
 11
1.752915
 21
0.458910
 31
0.000000
  0
LINE
  8
Layer0$C$L0
 67
     0
 10
1.874379
 20
0.580374
 30
0.000000
 11
1.859273
 21
0.565268
 31
0.000000
  0
LINE
  8
Layer0$C$L0
 67
     0
 10
2.020226
 20
0.726221
 30
0.000000
 11
1.945819
 21
0.651814
 31
0.000000
  0
LINE
  8
Layer0$C$L0
 67
     0
 10
1.793115
 20
0.520323
 30
0.000000
 11
1.727309
 21
0.454517
 31
0.000000
  0
LINE
  8
Layer0$C$L0
 67
     0
 10
1.873090
 20
0.600298
 30
0.000000
 11
1.838060
 21
0.565268
 31
0.000000
  0
LINE
  8
Layer0$C$L0
 67
     0
 10
1.999013
 20
0.726221
 30
0.000000
 11
1.945819
 21
0.673027
 31
0.000000
  0
LINE
  8
Layer0$C$L0
 67
     0
 10
1.773152
 20
0.521573
 30
0.000000
 11
1.703509
 21
0.451930
 31
0.000000
  0
LINE
  8
Layer0$C$L0
 67
     0
 10
1.869829
 20
0.618250
 30
0.000000
 11
1.816847
 21
0.565268
 31
0.000000
  0
LINE
  8
Layer0$C$L0
 67
     0
 10
1.977800
 20
0.726221
 30
0.000000
 11
1.945819
 21
0.694240
 31
0.000000
  0
LINE
  8
Layer0$C$L0
 67
     0
 10
1.753189
 20
0.522823
 30
0.000000
 11
1.680817
 21
0.450451
 31
0.000000
  0
LINE
  8
Layer0$C$L0
 67
     0
 10
1.864877
 20
0.634511
 30
0.000000
 11
1.795634
 21
0.565268
 31
0.000000
  0
LINE
  8
Layer0$C$L0
 67
     0
 10
1.956587
 20
0.726221
 30
0.000000
 11
1.945819
 21
0.715453
 31
0.000000
  0
LINE
  8
Layer0$C$L0
 67
     0
 10
1.733226
 20
0.524073
 30
0.000000
 11
1.658899
 21
0.449747
 31
0.000000
  0
LINE
  8
Layer0$C$L0
 67
     0
 10
1.858206
 20
0.649054
 30
0.000000
 11
1.774421
 21
0.565268
 31
0.000000
  0
LINE
  8
Layer0$C$L0
 67
     0
 10
1.713263
 20
0.525323
 30
0.000000
 11
1.637582
 21
0.449643
 31
0.000000
  0
LINE
  8
Layer0$C$L0
 67
     0
 10
1.849960
 20
0.662020
 30
0.000000
 11
1.753207
 21
0.565268
 31
0.000000
  0
LINE
  8
Layer0$C$L0
 67
     0
 10
1.675422
 20
0.508695
 30
0.000000
 11
1.616810
 21
0.450084
 31
0.000000
  0
LINE
  8
Layer0$C$L0
 67
     0
 10
1.840297
 20
0.673571
 30
0.000000
 11
1.731994
 21
0.565268
 31
0.000000
  0
LINE
  8
Layer0$C$L0
 67
     0
 10
1.651071
 20
0.505558
 30
0.000000
 11
1.596657
 21
0.451144
 31
0.000000
  0
LINE
  8
Layer0$C$L0
 67
     0
 10
1.829367
 20
0.683854
 30
0.000000
 11
1.710781
 21
0.565268
 31
0.000000
  0
LINE
  8
Layer0$C$L0
 67
     0
 10
1.630711
 20
0.506412
 30
0.000000
 11
1.577200
 21
0.452900
 31
0.000000
  0
LINE
  8
Layer0$C$L0
 67
     0
 10
1.817292
 20
0.692992
 30
0.000000
 11
1.689568
 21
0.565268
 31
0.000000
  0
LINE
  8
Layer0$C$L0
 67
     0
 10
1.613162
 20
0.510075
 30
0.000000
 11
1.558514
 21
0.455427
 31
0.000000
  0
LINE
  8
Layer0$C$L0
 67
     0
 10
1.713004
 20
0.609917
 30
0.000000
 11
1.668355
 21
0.565268
 31
0.000000
  0
LINE
  8
Layer0$C$L0
 67
     0
 10
1.804154
 20
0.701067
 30
0.000000
 11
1.723976
 21
0.620890
 31
0.000000
  0
LINE
  8
Layer0$C$L0
 67
     0
 10
1.598088
 20
0.516215
 30
0.000000
 11
1.540710
 21
0.458837
 31
0.000000
  0
LINE
  8
Layer0$C$L0
 67
     0
 10
1.691790
 20
0.609917
 30
0.000000
 11
1.647141
 21
0.565268
 31
0.000000
  0
LINE
  8
Layer0$C$L0
 67
     0
 10
1.790006
 20
0.708133
 30
0.000000
 11
1.718802
 21
0.636928
 31
0.000000
  0
LINE
  8
Layer0$C$L0
 67
     0
 10
1.585348
 20
0.524688
 30
0.000000
 11
1.523907
 21
0.463247
 31
0.000000
  0
LINE
  8
Layer0$C$L0
 67
     0
 10
1.670577
 20
0.609917
 30
0.000000
 11
1.625928
 21
0.565268
 31
0.000000
  0
LINE
  8
Layer0$C$L0
 67
     0
 10
1.774879
 20
0.714219
 30
0.000000
 11
1.711093
 21
0.650433
 31
0.000000
  0
LINE
  8
Layer0$C$L0
 67
     0
 10
1.575164
 20
0.535717
 30
0.000000
 11
1.508211
 21
0.468764
 31
0.000000
  0
LINE
  8
Layer0$C$L0
 67
     0
 10
1.649364
 20
0.609917
 30
0.000000
 11
1.604715
 21
0.565268
 31
0.000000
  0
LINE
  8
Layer0$C$L0
 67
     0
 10
1.758788
 20
0.719341
 30
0.000000
 11
1.700377
 21
0.660930
 31
0.000000
  0
LINE
  8
Layer0$C$L0
 67
     0
 10
1.568069
 20
0.549836
 30
0.000000
 11
1.493604
 21
0.475370
 31
0.000000
  0
LINE
  8
Layer0$C$L0
 67
     0
 10
1.628151
 20
0.609917
 30
0.000000
 11
1.583502
 21
0.565268
 31
0.000000
  0
LINE
  8
Layer0$C$L0
 67
     0
 10
1.741739
 20
0.723505
 30
0.000000
 11
1.686808
 21
0.668574
 31
0.000000
  0
LINE
  8
Layer0$C$L0
 67
     0
 10
1.606938
 20
0.609917
 30
0.000000
 11
1.480030
 21
0.483009
 31
0.000000
  0
LINE
  8
Layer0$C$L0
 67
     0
 10
1.723770
 20
0.726749
 30
0.000000
 11
1.670594
 21
0.673574
 31
0.000000
  0
LINE
  8
Layer0$C$L0
 67
     0
 10
1.585724
 20
0.609917
 30
0.000000
 11
1.467445
 21
0.491637
 31
0.000000
  0
LINE
  8
Layer0$C$L0
 67
     0
 10
1.704983
 20
0.729176
 30
0.000000
 11
1.651686
 21
0.675878
 31
0.000000
  0
LINE
  8
Layer0$C$L0
 67
     0
 10
1.564750
 20
0.610156
 30
0.000000
 11
1.455834
 21
0.501240
 31
0.000000
  0
LINE
  8
Layer0$C$L0
 67
     0
 10
1.685480
 20
0.730886
 30
0.000000
 11
1.629631
 21
0.675037
 31
0.000000
  0
LINE
  8
Layer0$C$L0
 67
     0
 10
1.571266
 20
0.637885
 30
0.000000
 11
1.445233
 21
0.511852
 31
0.000000
  0
LINE
  8
Layer0$C$L0
 67
     0
 10
1.665333
 20
0.731952
 30
0.000000
 11
1.599064
 21
0.665684
 31
0.000000
  0
LINE
  8
Layer0$C$L0
 67
     0
 10
1.644556
 20
0.732388
 30
0.000000
 11
1.435729
 21
0.523561
 31
0.000000
  0
LINE
  8
Layer0$C$L0
 67
     0
 10
1.623096
 20
0.732141
 30
0.000000
 11
1.427558
 21
0.536603
 31
0.000000
  0
LINE
  8
Layer0$C$L0
 67
     0
 10
1.600720
 20
0.730979
 30
0.000000
 11
1.421062
 21
0.551320
 31
0.000000
  0
LINE
  8
Layer0$C$L0
 67
     0
 10
1.576991
 20
0.728462
 30
0.000000
 11
1.416568
 21
0.568040
 31
0.000000
  0
LINE
  8
Layer0$C$L0
 67
     0
 10
1.551254
 20
0.723939
 30
0.000000
 11
1.414582
 21
0.587267
 31
0.000000
  0
LINE
  8
Layer0$C$L0
 67
     0
 10
1.522075
 20
0.715974
 30
0.000000
 11
1.416035
 21
0.609933
 31
0.000000
  0
LINE
  8
Layer0$C$L0
 67
     0
 10
1.484007
 20
0.699119
 30
0.000000
 11
1.425723
 21
0.640834
 31
0.000000
  0
LINE
  8
Layer0$C$L0
 67
     0
 10
1.342311
 20
0.621062
 30
0.000000
 11
1.329560
 21
0.608311
 31
0.000000
  0
LINE
  8
Layer0$C$L0
 67
     0
 10
1.342311
 20
0.642275
 30
0.000000
 11
1.308347
 21
0.608311
 31
0.000000
  0
LINE
  8
Layer0$C$L0
 67
     0
 10
1.342311
 20
0.663488
 30
0.000000
 11
1.287134
 21
0.608311
 31
0.000000
  0
LINE
  8
Layer0$C$L0
 67
     0
 10
1.129949
 20
0.472340
 30
0.000000
 11
1.113314
 21
0.455705
 31
0.000000
  0
LINE
  8
Layer0$C$L0
 67
     0
 10
1.341310
 20
0.683701
 30
0.000000
 11
1.265920
 21
0.608311
 31
0.000000
  0
LINE
  8
Layer0$C$L0
 67
     0
 10
1.129949
 20
0.493553
 30
0.000000
 11
1.092101
 21
0.455705
 31
0.000000
  0
LINE
  8
Layer0$C$L0
 67
     0
 10
1.320097
 20
0.683701
 30
0.000000
 11
1.244707
 21
0.608311
 31
0.000000
  0
LINE
  8
Layer0$C$L0
 67
     0
 10
1.129949
 20
0.514766
 30
0.000000
 11
1.070888
 21
0.455705
 31
0.000000
  0
LINE
  8
Layer0$C$L0
 67
     0
 10
1.298884
 20
0.683701
 30
0.000000
 11
1.223494
 21
0.608311
 31
0.000000
  0
LINE
  8
Layer0$C$L0
 67
     0
 10
1.378677
 20
0.763494
 30
0.000000
 11
1.364100
 21
0.748917
 31
0.000000
  0
LINE
  8
Layer0$C$L0
 67
     0
 10
1.129949
 20
0.535979
 30
0.000000
 11
1.049675
 21
0.455705
 31
0.000000
  0
LINE
  8
Layer0$C$L0
 67
     0
 10
1.277671
 20
0.683701
 30
0.000000
 11
1.202281
 21
0.608311
 31
0.000000
  0
LINE
  8
Layer0$C$L0
 67
     0
 10
1.378677
 20
0.784707
 30
0.000000
 11
1.342887
 21
0.748917
 31
0.000000
  0
LINE
  8
Layer0$C$L0
 67
     0
 10
1.129949
 20
0.557192
 30
0.000000
 11
1.028461
 21
0.455705
 31
0.000000
  0
LINE
  8
Layer0$C$L0
 67
     0
 10
1.256457
 20
0.683701
 30
0.000000
 11
1.181068
 21
0.608311
 31
0.000000
  0
LINE
  8
Layer0$C$L0
 67
     0
 10
1.378677
 20
0.805920
 30
0.000000
 11
1.321674
 21
0.748917
 31
0.000000
  0
LINE
  8
Layer0$C$L0
 67
     0
 10
1.129949
 20
0.578406
 30
0.000000
 11
1.007248
 21
0.455705
 31
0.000000
  0
LINE
  8
Layer0$C$L0
 67
     0
 10
1.235244
 20
0.683701
 30
0.000000
 11
1.159854
 21
0.608311
 31
0.000000
  0
LINE
  8
Layer0$C$L0
 67
     0
 10
1.378677
 20
0.827134
 30
0.000000
 11
1.300460
 21
0.748917
 31
0.000000
  0
LINE
  8
Layer0$C$L0
 67
     0
 10
1.129949
 20
0.599619
 30
0.000000
 11
0.986035
 21
0.455705
 31
0.000000
  0
LINE
  8
Layer0$C$L0
 67
     0
 10
1.214031
 20
0.683701
 30
0.000000
 11
1.138641
 21
0.608311
 31
0.000000
  0
LINE
  8
Layer0$C$L0
 67
     0
 10
1.359507
 20
0.829177
 30
0.000000
 11
1.279247
 21
0.748917
 31
0.000000
  0
LINE
  8
Layer0$C$L0
 67
     0
 10
1.192818
 20
0.683701
 30
0.000000
 11
0.964822
 21
0.455705
 31
0.000000
  0
LINE
  8
Layer0$C$L0
 67
     0
 10
1.338294
 20
0.829177
 30
0.000000
 11
1.258034
 21
0.748917
 31
0.000000
  0
LINE
  8
Layer0$C$L0
 67
     0
 10
1.171605
 20
0.683701
 30
0.000000
 11
0.959827
 21
0.471923
 31
0.000000
  0
LINE
  8
Layer0$C$L0
 67
     0
 10
1.317081
 20
0.829177
 30
0.000000
 11
1.236821
 21
0.748917
 31
0.000000
  0
LINE
  8
Layer0$C$L0
 67
     0
 10
1.150391
 20
0.683701
 30
0.000000
 11
0.959827
 21
0.493136
 31
0.000000
  0
LINE
  8
Layer0$C$L0
 67
     0
 10
1.295867
 20
0.829177
 30
0.000000
 11
1.215607
 21
0.748917
 31
0.000000
  0
LINE
  8
Layer0$C$L0
 67
     0
 10
1.129949
 20
0.684472
 30
0.000000
 11
0.959827
 21
0.514350
 31
0.000000
  0
LINE
  8
Layer0$C$L0
 67
     0
 10
1.274654
 20
0.829177
 30
0.000000
 11
1.194394
 21
0.748917
 31
0.000000
  0
LINE
  8
Layer0$C$L0
 67
     0
 10
1.129949
 20
0.705685
 30
0.000000
 11
0.959827
 21
0.535563
 31
0.000000
  0
LINE
  8
Layer0$C$L0
 67
     0
 10
1.253441
 20
0.829177
 30
0.000000
 11
1.173181
 21
0.748917
 31
0.000000
  0
LINE
  8
Layer0$C$L0
 67
     0
 10
1.129949
 20
0.726898
 30
0.000000
 11
0.959827
 21
0.556776
 31
0.000000
  0
LINE
  8
Layer0$C$L0
 67
     0
 10
1.232228
 20
0.829177
 30
0.000000
 11
1.151968
 21
0.748917
 31
0.000000
  0
LINE
  8
Layer0$C$L0
 67
     0
 10
1.129949
 20
0.748111
 30
0.000000
 11
0.959827
 21
0.577989
 31
0.000000
  0
LINE
  8
Layer0$C$L0
 67
     0
 10
1.211015
 20
0.829177
 30
0.000000
 11
1.130755
 21
0.748917
 31
0.000000
  0
LINE
  8
Layer0$C$L0
 67
     0
 10
1.189801
 20
0.829177
 30
0.000000
 11
0.959827
 21
0.599203
 31
0.000000
  0
LINE
  8
Layer0$C$L0
 67
     0
 10
1.168588
 20
0.829177
 30
0.000000
 11
0.959827
 21
0.620416
 31
0.000000
  0
LINE
  8
Layer0$C$L0
 67
     0
 10
1.147375
 20
0.829177
 30
0.000000
 11
0.959827
 21
0.641629
 31
0.000000
  0
LINE
  8
Layer0$C$L0
 67
     0
 10
1.126162
 20
0.829177
 30
0.000000
 11
0.959827
 21
0.662842
 31
0.000000
  0
LINE
  8
Layer0$C$L0
 67
     0
 10
1.104949
 20
0.829177
 30
0.000000
 11
0.959827
 21
0.684055
 31
0.000000
  0
LINE
  8
Layer0$C$L0
 67
     0
 10
1.083735
 20
0.829177
 30
0.000000
 11
0.959827
 21
0.705269
 31
0.000000
  0
LINE
  8
Layer0$C$L0
 67
     0
 10
1.062522
 20
0.829177
 30
0.000000
 11
0.959827
 21
0.726482
 31
0.000000
  0
LINE
  8
Layer0$C$L0
 67
     0
 10
1.041309
 20
0.829177
 30
0.000000
 11
0.959827
 21
0.747695
 31
0.000000
  0
LINE
  8
Layer0$C$L0
 67
     0
 10
1.020096
 20
0.829177
 30
0.000000
 11
0.959827
 21
0.768908
 31
0.000000
  0
LINE
  8
Layer0$C$L0
 67
     0
 10
0.998883
 20
0.829177
 30
0.000000
 11
0.959827
 21
0.790121
 31
0.000000
  0
LINE
  8
Layer0$C$L0
 67
     0
 10
0.977669
 20
0.829177
 30
0.000000
 11
0.959827
 21
0.811335
 31
0.000000
  0
ENDBLK
  8
Layer0$C$L0
  0
BLOCK
  8
Layer0$C$L0
  2
*X3
 70
     1
 10
0.000000
 20
0.000000
  0
LINE
  8
Layer0$C$L0
 67
     0
 10
4.881419
 20
0.440788
 30
0.000000
 11
4.891315
 21
0.450684
 31
0.000000
  0
LINE
  8
Layer0$C$L0
 67
     0
 10
4.891315
 20
0.464827
 30
0.000000
 11
4.867276
 21
0.440788
 31
0.000000
  0
LINE
  8
Layer0$C$L0
 67
     0
 10
4.853134
 20
0.440788
 30
0.000000
 11
4.891315
 21
0.478969
 31
0.000000
  0
LINE
  8
Layer0$C$L0
 67
     0
 10
4.891315
 20
0.493111
 30
0.000000
 11
4.838992
 21
0.440788
 31
0.000000
  0
LINE
  8
Layer0$C$L0
 67
     0
 10
4.824850
 20
0.440788
 30
0.000000
 11
4.891315
 21
0.507253
 31
0.000000
  0
LINE
  8
Layer0$C$L0
 67
     0
 10
4.891315
 20
0.521395
 30
0.000000
 11
4.810708
 21
0.440788
 31
0.000000
  0
LINE
  8
Layer0$C$L0
 67
     0
 10
4.796566
 20
0.440788
 30
0.000000
 11
4.891315
 21
0.535537
 31
0.000000
  0
LINE
  8
Layer0$C$L0
 67
     0
 10
4.891315
 20
0.549679
 30
0.000000
 11
4.782423
 21
0.440788
 31
0.000000
  0
LINE
  8
Layer0$C$L0
 67
     0
 10
4.768281
 20
0.440788
 30
0.000000
 11
4.891315
 21
0.563821
 31
0.000000
  0
LINE
  8
Layer0$C$L0
 67
     0
 10
4.891315
 20
0.577964
 30
0.000000
 11
4.754139
 21
0.440788
 31
0.000000
  0
LINE
  8
Layer0$C$L0
 67
     0
 10
4.739997
 20
0.440788
 30
0.000000
 11
4.891315
 21
0.592106
 31
0.000000
  0
LINE
  8
Layer0$C$L0
 67
     0
 10
4.891315
 20
0.606248
 30
0.000000
 11
4.725855
 21
0.440788
 31
0.000000
  0
LINE
  8
Layer0$C$L0
 67
     0
 10
4.711713
 20
0.440788
 30
0.000000
 11
4.891315
 21
0.620390
 31
0.000000
  0
LINE
  8
Layer0$C$L0
 67
     0
 10
4.891315
 20
0.634532
 30
0.000000
 11
4.697571
 21
0.440788
 31
0.000000
  0
LINE
  8
Layer0$C$L0
 67
     0
 10
4.683429
 20
0.440788
 30
0.000000
 11
4.891315
 21
0.648674
 31
0.000000
  0
LINE
  8
Layer0$C$L0
 67
     0
 10
4.891315
 20
0.662816
 30
0.000000
 11
4.669286
 21
0.440788
 31
0.000000
  0
LINE
  8
Layer0$C$L0
 67
     0
 10
4.655144
 20
0.440788
 30
0.000000
 11
4.891315
 21
0.676959
 31
0.000000
  0
LINE
  8
Layer0$C$L0
 67
     0
 10
4.891315
 20
0.691101
 30
0.000000
 11
4.641002
 21
0.440788
 31
0.000000
  0
LINE
  8
Layer0$C$L0
 67
     0
 10
4.626860
 20
0.440788
 30
0.000000
 11
4.891315
 21
0.705243
 31
0.000000
  0
LINE
  8
Layer0$C$L0
 67
     0
 10
4.891315
 20
0.719385
 30
0.000000
 11
4.612718
 21
0.440788
 31
0.000000
  0
LINE
  8
Layer0$C$L0
 67
     0
 10
4.598576
 20
0.440788
 30
0.000000
 11
4.885052
 21
0.727264
 31
0.000000
  0
LINE
  8
Layer0$C$L0
 67
     0
 10
4.870910
 20
0.727264
 30
0.000000
 11
4.584434
 21
0.440788
 31
0.000000
  0
LINE
  8
Layer0$C$L0
 67
     0
 10
4.570292
 20
0.440788
 30
0.000000
 11
4.856768
 21
0.727264
 31
0.000000
  0
LINE
  8
Layer0$C$L0
 67
     0
 10
4.842626
 20
0.727264
 30
0.000000
 11
4.556149
 21
0.440788
 31
0.000000
  0
LINE
  8
Layer0$C$L0
 67
     0
 10
4.542007
 20
0.440788
 30
0.000000
 11
4.828484
 21
0.727264
 31
0.000000
  0
LINE
  8
Layer0$C$L0
 67
     0
 10
4.814341
 20
0.727264
 30
0.000000
 11
4.527865
 21
0.440788
 31
0.000000
  0
LINE
  8
Layer0$C$L0
 67
     0
 10
4.513723
 20
0.440788
 30
0.000000
 11
4.800199
 21
0.727264
 31
0.000000
  0
LINE
  8
Layer0$C$L0
 67
     0
 10
4.786057
 20
0.727264
 30
0.000000
 11
4.499581
 21
0.440788
 31
0.000000
  0
LINE
  8
Layer0$C$L0
 67
     0
 10
4.485439
 20
0.440788
 30
0.000000
 11
4.771915
 21
0.727264
 31
0.000000
  0
LINE
  8
Layer0$C$L0
 67
     0
 10
4.757773
 20
0.727264
 30
0.000000
 11
4.471297
 21
0.440788
 31
0.000000
  0
LINE
  8
Layer0$C$L0
 67
     0
 10
4.457154
 20
0.440788
 30
0.000000
 11
4.743630
 21
0.727264
 31
0.000000
  0
LINE
  8
Layer0$C$L0
 67
     0
 10
4.729488
 20
0.727264
 30
0.000000
 11
4.443012
 21
0.440788
 31
0.000000
  0
LINE
  8
Layer0$C$L0
 67
     0
 10
4.428870
 20
0.440788
 30
0.000000
 11
4.715346
 21
0.727264
 31
0.000000
  0
LINE
  8
Layer0$C$L0
 67
     0
 10
4.701204
 20
0.727264
 30
0.000000
 11
4.414728
 21
0.440788
 31
0.000000
  0
LINE
  8
Layer0$C$L0
 67
     0
 10
4.400586
 20
0.440788
 30
0.000000
 11
4.687062
 21
0.727264
 31
0.000000
  0
LINE
  8
Layer0$C$L0
 67
     0
 10
4.672920
 20
0.727264
 30
0.000000
 11
4.386444
 21
0.440788
 31
0.000000
  0
LINE
  8
Layer0$C$L0
 67
     0
 10
4.372302
 20
0.440788
 30
0.000000
 11
4.658778
 21
0.727264
 31
0.000000
  0
LINE
  8
Layer0$C$L0
 67
     0
 10
4.644636
 20
0.727264
 30
0.000000
 11
4.358160
 21
0.440788
 31
0.000000
  0
LINE
  8
Layer0$C$L0
 67
     0
 10
4.344018
 20
0.440788
 30
0.000000
 11
4.630494
 21
0.727264
 31
0.000000
  0
LINE
  8
Layer0$C$L0
 67
     0
 10
4.616351
 20
0.727264
 30
0.000000
 11
4.329875
 21
0.440788
 31
0.000000
  0
LINE
  8
Layer0$C$L0
 67
     0
 10
4.315733
 20
0.440788
 30
0.000000
 11
4.602209
 21
0.727264
 31
0.000000
  0
LINE
  8
Layer0$C$L0
 67
     0
 10
4.588067
 20
0.727264
 30
0.000000
 11
4.301591
 21
0.440788
 31
0.000000
  0
LINE
  8
Layer0$C$L0
 67
     0
 10
4.287449
 20
0.440788
 30
0.000000
 11
4.573925
 21
0.727264
 31
0.000000
  0
LINE
  8
Layer0$C$L0
 67
     0
 10
4.559783
 20
0.727264
 30
0.000000
 11
4.273307
 21
0.440788
 31
0.000000
  0
LINE
  8
Layer0$C$L0
 67
     0
 10
4.259164
 20
0.440788
 30
0.000000
 11
4.545640
 21
0.727264
 31
0.000000
  0
LINE
  8
Layer0$C$L0
 67
     0
 10
4.531498
 20
0.727264
 30
0.000000
 11
4.245022
 21
0.440788
 31
0.000000
  0
LINE
  8
Layer0$C$L0
 67
     0
 10
4.230880
 20
0.440788
 30
0.000000
 11
4.517356
 21
0.727264
 31
0.000000
  0
LINE
  8
Layer0$C$L0
 67
     0
 10
4.503214
 20
0.727264
 30
0.000000
 11
4.216738
 21
0.440788
 31
0.000000
  0
LINE
  8
Layer0$C$L0
 67
     0
 10
4.202596
 20
0.440788
 30
0.000000
 11
4.489072
 21
0.727264
 31
0.000000
  0
LINE
  8
Layer0$C$L0
 67
     0
 10
4.474930
 20
0.727264
 30
0.000000
 11
4.188454
 21
0.440788
 31
0.000000
  0
LINE
  8
Layer0$C$L0
 67
     0
 10
4.174312
 20
0.440788
 30
0.000000
 11
4.460788
 21
0.727264
 31
0.000000
  0
LINE
  8
Layer0$C$L0
 67
     0
 10
4.446646
 20
0.727264
 30
0.000000
 11
4.160170
 21
0.440788
 31
0.000000
  0
LINE
  8
Layer0$C$L0
 67
     0
 10
4.146028
 20
0.440788
 30
0.000000
 11
4.432504
 21
0.727264
 31
0.000000
  0
LINE
  8
Layer0$C$L0
 67
     0
 10
4.418362
 20
0.727264
 30
0.000000
 11
4.131886
 21
0.440788
 31
0.000000
  0
LINE
  8
Layer0$C$L0
 67
     0
 10
4.117743
 20
0.440788
 30
0.000000
 11
4.404219
 21
0.727264
 31
0.000000
  0
LINE
  8
Layer0$C$L0
 67
     0
 10
4.390077
 20
0.727264
 30
0.000000
 11
4.103601
 21
0.440788
 31
0.000000
  0
LINE
  8
Layer0$C$L0
 67
     0
 10
4.089459
 20
0.440788
 30
0.000000
 11
4.375935
 21
0.727264
 31
0.000000
  0
LINE
  8
Layer0$C$L0
 67
     0
 10
4.361793
 20
0.727264
 30
0.000000
 11
4.075317
 21
0.440788
 31
0.000000
  0
LINE
  8
Layer0$C$L0
 67
     0
 10
4.061174
 20
0.440788
 30
0.000000
 11
4.347651
 21
0.727264
 31
0.000000
  0
LINE
  8
Layer0$C$L0
 67
     0
 10
4.333508
 20
0.727264
 30
0.000000
 11
4.047032
 21
0.440788
 31
0.000000
  0
LINE
  8
Layer0$C$L0
 67
     0
 10
4.032890
 20
0.440788
 30
0.000000
 11
4.319366
 21
0.727264
 31
0.000000
  0
LINE
  8
Layer0$C$L0
 67
     0
 10
4.305224
 20
0.727264
 30
0.000000
 11
4.018748
 21
0.440788
 31
0.000000
  0
LINE
  8
Layer0$C$L0
 67
     0
 10
4.004606
 20
0.440788
 30
0.000000
 11
4.291082
 21
0.727264
 31
0.000000
  0
LINE
  8
Layer0$C$L0
 67
     0
 10
4.276940
 20
0.727264
 30
0.000000
 11
3.990464
 21
0.440788
 31
0.000000
  0
LINE
  8
Layer0$C$L0
 67
     0
 10
3.976322
 20
0.440788
 30
0.000000
 11
4.262798
 21
0.727264
 31
0.000000
  0
LINE
  8
Layer0$C$L0
 67
     0
 10
4.248656
 20
0.727264
 30
0.000000
 11
3.962180
 21
0.440788
 31
0.000000
  0
LINE
  8
Layer0$C$L0
 67
     0
 10
3.948038
 20
0.440788
 30
0.000000
 11
4.234514
 21
0.727264
 31
0.000000
  0
LINE
  8
Layer0$C$L0
 67
     0
 10
4.220372
 20
0.727264
 30
0.000000
 11
3.933895
 21
0.440788
 31
0.000000
  0
LINE
  8
Layer0$C$L0
 67
     0
 10
3.919753
 20
0.440788
 30
0.000000
 11
4.206229
 21
0.727264
 31
0.000000
  0
LINE
  8
Layer0$C$L0
 67
     0
 10
4.192087
 20
0.727264
 30
0.000000
 11
3.905611
 21
0.440788
 31
0.000000
  0
LINE
  8
Layer0$C$L0
 67
     0
 10
3.891469
 20
0.440788
 30
0.000000
 11
4.177945
 21
0.727264
 31
0.000000
  0
LINE
  8
Layer0$C$L0
 67
     0
 10
4.163803
 20
0.727264
 30
0.000000
 11
3.877327
 21
0.440788
 31
0.000000
  0
LINE
  8
Layer0$C$L0
 67
     0
 10
3.863185
 20
0.440788
 30
0.000000
 11
4.149661
 21
0.727264
 31
0.000000
  0
LINE
  8
Layer0$C$L0
 67
     0
 10
4.135519
 20
0.727264
 30
0.000000
 11
3.849043
 21
0.440788
 31
0.000000
  0
LINE
  8
Layer0$C$L0
 67
     0
 10
3.834900
 20
0.440788
 30
0.000000
 11
4.121377
 21
0.727264
 31
0.000000
  0
LINE
  8
Layer0$C$L0
 67
     0
 10
4.107234
 20
0.727264
 30
0.000000
 11
3.820758
 21
0.440788
 31
0.000000
  0
LINE
  8
Layer0$C$L0
 67
     0
 10
3.806616
 20
0.440788
 30
0.000000
 11
4.093092
 21
0.727264
 31
0.000000
  0
LINE
  8
Layer0$C$L0
 67
     0
 10
4.078950
 20
0.727264
 30
0.000000
 11
3.792474
 21
0.440788
 31
0.000000
  0
LINE
  8
Layer0$C$L0
 67
     0
 10
3.778332
 20
0.440788
 30
0.000000
 11
4.064808
 21
0.727264
 31
0.000000
  0
LINE
  8
Layer0$C$L0
 67
     0
 10
4.050666
 20
0.727264
 30
0.000000
 11
3.764190
 21
0.440788
 31
0.000000
  0
LINE
  8
Layer0$C$L0
 67
     0
 10
3.750048
 20
0.440788
 30
0.000000
 11
4.036524
 21
0.727264
 31
0.000000
  0
LINE
  8
Layer0$C$L0
 67
     0
 10
4.022382
 20
0.727264
 30
0.000000
 11
3.735905
 21
0.440788
 31
0.000000
  0
LINE
  8
Layer0$C$L0
 67
     0
 10
3.721763
 20
0.440788
 30
0.000000
 11
4.008240
 21
0.727264
 31
0.000000
  0
LINE
  8
Layer0$C$L0
 67
     0
 10
3.994097
 20
0.727264
 30
0.000000
 11
3.707621
 21
0.440788
 31
0.000000
  0
LINE
  8
Layer0$C$L0
 67
     0
 10
3.704484
 20
0.451793
 30
0.000000
 11
3.979955
 21
0.727264
 31
0.000000
  0
LINE
  8
Layer0$C$L0
 67
     0
 10
3.965813
 20
0.727264
 30
0.000000
 11
3.704484
 21
0.465935
 31
0.000000
  0
LINE
  8
Layer0$C$L0
 67
     0
 10
3.704484
 20
0.480077
 30
0.000000
 11
3.951671
 21
0.727264
 31
0.000000
  0
LINE
  8
Layer0$C$L0
 67
     0
 10
3.937529
 20
0.727264
 30
0.000000
 11
3.704484
 21
0.494219
 31
0.000000
  0
LINE
  8
Layer0$C$L0
 67
     0
 10
3.704484
 20
0.508361
 30
0.000000
 11
3.923387
 21
0.727264
 31
0.000000
  0
LINE
  8
Layer0$C$L0
 67
     0
 10
3.909245
 20
0.727264
 30
0.000000
 11
3.704484
 21
0.522503
 31
0.000000
  0
LINE
  8
Layer0$C$L0
 67
     0
 10
3.704484
 20
0.536646
 30
0.000000
 11
3.895103
 21
0.727264
 31
0.000000
  0
LINE
  8
Layer0$C$L0
 67
     0
 10
3.880960
 20
0.727264
 30
0.000000
 11
3.704484
 21
0.550788
 31
0.000000
  0
LINE
  8
Layer0$C$L0
 67
     0
 10
3.704484
 20
0.564930
 30
0.000000
 11
3.866818
 21
0.727264
 31
0.000000
  0
LINE
  8
Layer0$C$L0
 67
     0
 10
3.852676
 20
0.727264
 30
0.000000
 11
3.704484
 21
0.579072
 31
0.000000
  0
LINE
  8
Layer0$C$L0
 67
     0
 10
3.704484
 20
0.593214
 30
0.000000
 11
3.838534
 21
0.727264
 31
0.000000
  0
LINE
  8
Layer0$C$L0
 67
     0
 10
3.824392
 20
0.727264
 30
0.000000
 11
3.704484
 21
0.607356
 31
0.000000
  0
LINE
  8
Layer0$C$L0
 67
     0
 10
3.704484
 20
0.621498
 30
0.000000
 11
3.810250
 21
0.727264
 31
0.000000
  0
LINE
  8
Layer0$C$L0
 67
     0
 10
3.796108
 20
0.727264
 30
0.000000
 11
3.704484
 21
0.635641
 31
0.000000
  0
LINE
  8
Layer0$C$L0
 67
     0
 10
3.704484
 20
0.649783
 30
0.000000
 11
3.781965
 21
0.727264
 31
0.000000
  0
LINE
  8
Layer0$C$L0
 67
     0
 10
3.767823
 20
0.727264
 30
0.000000
 11
3.704484
 21
0.663925
 31
0.000000
  0
LINE
  8
Layer0$C$L0
 67
     0
 10
3.704484
 20
0.678067
 30
0.000000
 11
3.753681
 21
0.727264
 31
0.000000
  0
LINE
  8
Layer0$C$L0
 67
     0
 10
3.739539
 20
0.727264
 30
0.000000
 11
3.704484
 21
0.692209
 31
0.000000
  0
LINE
  8
Layer0$C$L0
 67
     0
 10
3.704484
 20
0.706351
 30
0.000000
 11
3.725397
 21
0.727264
 31
0.000000
  0
LINE
  8
Layer0$C$L0
 67
     0
 10
3.711255
 20
0.727264
 30
0.000000
 11
3.704484
 21
0.720493
 31
0.000000
  0
ENDBLK
  8
Layer0$C$L0
  0
BLOCK
  8
Layer0$C$L0
  2
*X4
 70
     1
 10
0.000000
 20
0.000000
  0
LINE
  8
Layer0$C$L0
 67
     0
 10
0.828653
 20
0.404389
 30
0.000000
 11
0.831420
 21
0.407156
 31
0.000000
  0
LINE
  8
Layer0$C$L0
 67
     0
 10
0.831403
 20
0.421282
 30
0.000000
 11
0.819820
 21
0.409698
 31
0.000000
  0
LINE
  8
Layer0$C$L0
 67
     0
 10
0.810411
 20
0.414431
 30
0.000000
 11
0.831387
 21
0.435407
 31
0.000000
  0
LINE
  8
Layer0$C$L0
 67
     0
 10
0.831371
 20
0.449533
 30
0.000000
 11
0.800544
 21
0.418706
 31
0.000000
  0
LINE
  8
Layer0$C$L0
 67
     0
 10
0.790323
 20
0.422628
 30
0.000000
 11
0.831355
 21
0.463659
 31
0.000000
  0
LINE
  8
Layer0$C$L0
 67
     0
 10
0.824938
 20
0.471384
 30
0.000000
 11
0.779767
 21
0.426213
 31
0.000000
  0
LINE
  8
Layer0$C$L0
 67
     0
 10
0.768887
 20
0.429476
 30
0.000000
 11
0.810297
 21
0.470886
 31
0.000000
  0
LINE
  8
Layer0$C$L0
 67
     0
 10
0.795657
 20
0.470388
 30
0.000000
 11
0.757709
 21
0.432440
 31
0.000000
  0
LINE
  8
Layer0$C$L0
 67
     0
 10
0.746285
 20
0.435158
 30
0.000000
 11
0.781016
 21
0.469889
 31
0.000000
  0
LINE
  8
Layer0$C$L0
 67
     0
 10
0.766376
 20
0.469391
 30
0.000000
 11
0.734662
 21
0.437677
 31
0.000000
  0
LINE
  8
Layer0$C$L0
 67
     0
 10
0.722875
 20
0.440032
 30
0.000000
 11
0.751736
 21
0.468893
 31
0.000000
  0
LINE
  8
Layer0$C$L0
 67
     0
 10
0.737095
 20
0.468395
 30
0.000000
 11
0.710956
 21
0.442256
 31
0.000000
  0
LINE
  8
Layer0$C$L0
 67
     0
 10
0.698925
 20
0.444366
 30
0.000000
 11
0.722455
 21
0.467896
 31
0.000000
  0
LINE
  8
Layer0$C$L0
 67
     0
 10
0.707814
 20
0.467398
 30
0.000000
 11
0.686797
 21
0.446381
 31
0.000000
  0
LINE
  8
Layer0$C$L0
 67
     0
 10
0.674584
 20
0.448310
 30
0.000000
 11
0.693174
 21
0.466900
 31
0.000000
  0
LINE
  8
Layer0$C$L0
 67
     0
 10
0.683959
 20
0.471827
 30
0.000000
 11
0.662289
 21
0.450157
 31
0.000000
  0
LINE
  8
Layer0$C$L0
 67
     0
 10
0.649916
 20
0.451926
 30
0.000000
 11
0.679090
 21
0.481100
 31
0.000000
  0
LINE
  8
Layer0$C$L0
 67
     0
 10
0.672681
 20
0.488833
 30
0.000000
 11
0.637474
 21
0.453626
 31
0.000000
  0
LINE
  8
Layer0$C$L0
 67
     0
 10
0.624985
 20
0.455280
 30
0.000000
 11
0.664796
 21
0.495090
 31
0.000000
  0
LINE
  8
Layer0$C$L0
 67
     0
 10
0.655531
 20
0.499968
 30
0.000000
 11
0.612476
 21
0.456912
 31
0.000000
  0
LINE
  8
Layer0$C$L0
 67
     0
 10
0.599985
 20
0.458564
 30
0.000000
 11
0.645016
 21
0.503594
 31
0.000000
  0
LINE
  8
Layer0$C$L0
 67
     0
 10
0.633432
 20
0.506152
 30
0.000000
 11
0.587635
 21
0.460356
 31
0.000000
  0
LINE
  8
Layer0$C$L0
 67
     0
 10
0.575584
 20
0.462447
 30
0.000000
 11
0.620900
 21
0.507763
 31
0.000000
  0
LINE
  8
Layer0$C$L0
 67
     0
 10
0.607508
 20
0.508513
 30
0.000000
 11
0.564109
 21
0.465114
 31
0.000000
  0
LINE
  8
Layer0$C$L0
 67
     0
 10
0.553669
 20
0.468816
 30
0.000000
 11
0.593302
 21
0.508449
 31
0.000000
  0
LINE
  8
Layer0$C$L0
 67
     0
 10
0.577937
 20
0.507227
 30
0.000000
 11
0.545069
 21
0.474358
 31
0.000000
  0
LINE
  8
Layer0$C$L0
 67
     0
 10
0.540659
 20
0.484090
 30
0.000000
 11
0.559161
 21
0.502593
 31
0.000000
  0
ENDBLK
  8
Layer0$C$L0
  0
BLOCK
  8
Layer0$C$L0
  2
*X5
 70
     1
 10
0.000000
 20
0.000000
  0
LINE
  8
Layer0$C$L0
 67
     0
 10
0.826519
 20
0.515392
 30
0.000000
 11
0.831290
 21
0.520163
 31
0.000000
  0
LINE
  8
Layer0$C$L0
 67
     0
 10
0.831274
 20
0.534289
 30
0.000000
 11
0.819562
 21
0.522578
 31
0.000000
  0
LINE
  8
Layer0$C$L0
 67
     0
 10
0.811924
 20
0.529082
 30
0.000000
 11
0.831258
 21
0.548415
 31
0.000000
  0
LINE
  8
Layer0$C$L0
 67
     0
 10
0.831242
 20
0.562541
 30
0.000000
 11
0.803572
 21
0.534872
 31
0.000000
  0
LINE
  8
Layer0$C$L0
 67
     0
 10
0.794575
 20
0.540016
 30
0.000000
 11
0.831225
 21
0.576667
 31
0.000000
  0
LINE
  8
Layer0$C$L0
 67
     0
 10
0.831209
 20
0.590793
 30
0.000000
 11
0.784996
 21
0.544579
 31
0.000000
  0
LINE
  8
Layer0$C$L0
 67
     0
 10
0.774913
 20
0.548638
 30
0.000000
 11
0.831193
 21
0.604919
 31
0.000000
  0
LINE
  8
Layer0$C$L0
 67
     0
 10
0.831177
 20
0.619045
 30
0.000000
 11
0.764366
 21
0.552234
 31
0.000000
  0
LINE
  8
Layer0$C$L0
 67
     0
 10
0.753389
 20
0.555400
 30
0.000000
 11
0.831161
 21
0.633171
 31
0.000000
  0
LINE
  8
Layer0$C$L0
 67
     0
 10
0.831144
 20
0.647297
 30
0.000000
 11
0.742016
 21
0.558168
 31
0.000000
  0
LINE
  8
Layer0$C$L0
 67
     0
 10
0.730275
 20
0.560570
 30
0.000000
 11
0.831128
 21
0.661423
 31
0.000000
  0
LINE
  8
Layer0$C$L0
 67
     0
 10
0.831112
 20
0.675549
 30
0.000000
 11
0.718196
 21
0.562633
 31
0.000000
  0
LINE
  8
Layer0$C$L0
 67
     0
 10
0.705800
 20
0.564379
 30
0.000000
 11
0.831096
 21
0.689675
 31
0.000000
  0
LINE
  8
Layer0$C$L0
 67
     0
 10
0.831080
 20
0.703801
 30
0.000000
 11
0.693109
 21
0.565829
 31
0.000000
  0
LINE
  8
Layer0$C$L0
 67
     0
 10
0.680142
 20
0.567005
 30
0.000000
 11
0.831064
 21
0.717926
 31
0.000000
  0
LINE
  8
Layer0$C$L0
 67
     0
 10
0.831047
 20
0.732052
 30
0.000000
 11
0.666912
 21
0.567917
 31
0.000000
  0
LINE
  8
Layer0$C$L0
 67
     0
 10
0.653434
 20
0.568581
 30
0.000000
 11
0.831031
 21
0.746178
 31
0.000000
  0
LINE
  8
Layer0$C$L0
 67
     0
 10
0.831015
 20
0.760304
 30
0.000000
 11
0.639723
 21
0.569012
 31
0.000000
  0
LINE
  8
Layer0$C$L0
 67
     0
 10
0.625798
 20
0.569229
 30
0.000000
 11
0.830999
 21
0.774430
 31
0.000000
  0
LINE
  8
Layer0$C$L0
 67
     0
 10
0.830983
 20
0.788556
 30
0.000000
 11
0.611677
 21
0.569250
 31
0.000000
  0
LINE
  8
Layer0$C$L0
 67
     0
 10
0.597362
 20
0.569078
 30
0.000000
 11
0.830966
 21
0.802682
 31
0.000000
  0
LINE
  8
Layer0$C$L0
 67
     0
 10
0.830950
 20
0.816808
 30
0.000000
 11
0.582830
 21
0.568688
 31
0.000000
  0
LINE
  8
Layer0$C$L0
 67
     0
 10
0.568051
 20
0.568051
 30
0.000000
 11
0.830934
 21
0.830934
 31
0.000000
  0
LINE
  8
Layer0$C$L0
 67
     0
 10
0.817850
 20
0.831992
 30
0.000000
 11
0.552974
 21
0.567116
 31
0.000000
  0
LINE
  8
Layer0$C$L0
 67
     0
 10
0.537525
 20
0.565809
 30
0.000000
 11
0.803708
 21
0.831992
 31
0.000000
  0
LINE
  8
Layer0$C$L0
 67
     0
 10
0.789566
 20
0.831992
 30
0.000000
 11
0.521588
 21
0.564015
 31
0.000000
  0
LINE
  8
Layer0$C$L0
 67
     0
 10
0.504961
 20
0.561530
 30
0.000000
 11
0.775423
 21
0.831992
 31
0.000000
  0
LINE
  8
Layer0$C$L0
 67
     0
 10
0.761281
 20
0.831992
 30
0.000000
 11
0.487322
 21
0.558032
 31
0.000000
  0
LINE
  8
Layer0$C$L0
 67
     0
 10
0.468119
 20
0.552972
 30
0.000000
 11
0.747139
 21
0.831992
 31
0.000000
  0
LINE
  8
Layer0$C$L0
 67
     0
 10
0.732997
 20
0.831992
 30
0.000000
 11
0.446304
 21
0.545298
 31
0.000000
  0
LINE
  8
Layer0$C$L0
 67
     0
 10
0.388165
 20
0.501302
 30
0.000000
 11
0.390226
 21
0.503363
 31
0.000000
  0
LINE
  8
Layer0$C$L0
 67
     0
 10
0.718855
 20
0.831992
 30
0.000000
 11
0.416351
 21
0.529488
 31
0.000000
  0
LINE
  8
Layer0$C$L0
 67
     0
 10
0.704713
 20
0.831992
 30
0.000000
 11
0.388165
 21
0.515444
 31
0.000000
  0
LINE
  8
Layer0$C$L0
 67
     0
 10
0.690571
 20
0.831992
 30
0.000000
 11
0.388165
 21
0.529586
 31
0.000000
  0
LINE
  8
Layer0$C$L0
 67
     0
 10
0.676429
 20
0.831992
 30
0.000000
 11
0.388165
 21
0.543728
 31
0.000000
  0
LINE
  8
Layer0$C$L0
 67
     0
 10
0.662286
 20
0.831992
 30
0.000000
 11
0.388165
 21
0.557871
 31
0.000000
  0
LINE
  8
Layer0$C$L0
 67
     0
 10
0.648144
 20
0.831992
 30
0.000000
 11
0.380069
 21
0.563917
 31
0.000000
  0
LINE
  8
Layer0$C$L0
 67
     0
 10
0.634002
 20
0.831992
 30
0.000000
 11
0.365927
 21
0.563917
 31
0.000000
  0
LINE
  8
Layer0$C$L0
 67
     0
 10
0.619860
 20
0.831992
 30
0.000000
 11
0.351785
 21
0.563917
 31
0.000000
  0
LINE
  8
Layer0$C$L0
 67
     0
 10
0.605718
 20
0.831992
 30
0.000000
 11
0.337643
 21
0.563917
 31
0.000000
  0
LINE
  8
Layer0$C$L0
 67
     0
 10
0.591576
 20
0.831992
 30
0.000000
 11
0.323501
 21
0.563917
 31
0.000000
  0
LINE
  8
Layer0$C$L0
 67
     0
 10
0.577434
 20
0.831992
 30
0.000000
 11
0.309359
 21
0.563917
 31
0.000000
  0
LINE
  8
Layer0$C$L0
 67
     0
 10
0.563291
 20
0.831992
 30
0.000000
 11
0.295216
 21
0.563917
 31
0.000000
  0
LINE
  8
Layer0$C$L0
 67
     0
 10
0.549149
 20
0.831992
 30
0.000000
 11
0.281074
 21
0.563917
 31
0.000000
  0
LINE
  8
Layer0$C$L0
 67
     0
 10
0.535007
 20
0.831992
 30
0.000000
 11
0.266932
 21
0.563917
 31
0.000000
  0
LINE
  8
Layer0$C$L0
 67
     0
 10
0.520865
 20
0.831992
 30
0.000000
 11
0.252790
 21
0.563917
 31
0.000000
  0
LINE
  8
Layer0$C$L0
 67
     0
 10
0.506723
 20
0.831992
 30
0.000000
 11
0.238648
 21
0.563917
 31
0.000000
  0
LINE
  8
Layer0$C$L0
 67
     0
 10
0.492581
 20
0.831992
 30
0.000000
 11
0.224506
 21
0.563917
 31
0.000000
  0
LINE
  8
Layer0$C$L0
 67
     0
 10
0.478439
 20
0.831992
 30
0.000000
 11
0.210364
 21
0.563917
 31
0.000000
  0
LINE
  8
Layer0$C$L0
 67
     0
 10
0.464296
 20
0.831992
 30
0.000000
 11
0.196222
 21
0.563917
 31
0.000000
  0
LINE
  8
Layer0$C$L0
 67
     0
 10
0.450154
 20
0.831992
 30
0.000000
 11
0.182079
 21
0.563917
 31
0.000000
  0
LINE
  8
Layer0$C$L0
 67
     0
 10
0.436012
 20
0.831992
 30
0.000000
 11
0.167937
 21
0.563917
 31
0.000000
  0
LINE
  8
Layer0$C$L0
 67
     0
 10
0.421870
 20
0.831992
 30
0.000000
 11
0.153795
 21
0.563917
 31
0.000000
  0
LINE
  8
Layer0$C$L0
 67
     0
 10
0.407728
 20
0.831992
 30
0.000000
 11
0.139653
 21
0.563917
 31
0.000000
  0
LINE
  8
Layer0$C$L0
 67
     0
 10
0.393586
 20
0.831992
 30
0.000000
 11
0.125511
 21
0.563917
 31
0.000000
  0
LINE
  8
Layer0$C$L0
 67
     0
 10
0.379444
 20
0.831992
 30
0.000000
 11
0.111369
 21
0.563917
 31
0.000000
  0
LINE
  8
Layer0$C$L0
 67
     0
 10
0.365302
 20
0.831992
 30
0.000000
 11
9.722657E-02
 21
0.563917
 31
0.000000
  0
LINE
  8
Layer0$C$L0
 67
     0
 10
0.351159
 20
0.831992
 30
0.000000
 11
8.308443E-02
 21
0.563917
 31
0.000000
  0
LINE
  8
Layer0$C$L0
 67
     0
 10
0.337017
 20
0.831992
 30
0.000000
 11
6.894229E-02
 21
0.563917
 31
0.000000
  0
LINE
  8
Layer0$C$L0
 67
     0
 10
0.322875
 20
0.831992
 30
0.000000
 11
5.480016E-02
 21
0.563917
 31
0.000000
  0
LINE
  8
Layer0$C$L0
 67
     0
 10
0.308733
 20
0.831992
 30
0.000000
 11
4.065802E-02
 21
0.563917
 31
0.000000
  0
LINE
  8
Layer0$C$L0
 67
     0
 10
0.294591
 20
0.831992
 30
0.000000
 11
2.651589E-02
 21
0.563917
 31
0.000000
  0
LINE
  8
Layer0$C$L0
 67
     0
 10
0.280449
 20
0.831992
 30
0.000000
 11
1.237375E-02
 21
0.563917
 31
0.000000
  0
LINE
  8
Layer0$C$L0
 67
     0
 10
0.266307
 20
0.831992
 30
0.000000
 11
-2.839878E-04
 21
0.565401
 31
0.000000
  0
LINE
  8
Layer0$C$L0
 67
     0
 10
0.252164
 20
0.831992
 30
0.000000
 11
-2.910964E-04
 21
0.579536
 31
0.000000
  0
LINE
  8
Layer0$C$L0
 67
     0
 10
0.238022
 20
0.831992
 30
0.000000
 11
-2.982049E-04
 21
0.593672
 31
0.000000
  0
LINE
  8
Layer0$C$L0
 67
     0
 10
0.223880
 20
0.831992
 30
0.000000
 11
-3.053135E-04
 21
0.607807
 31
0.000000
  0
LINE
  8
Layer0$C$L0
 67
     0
 10
0.209738
 20
0.831992
 30
0.000000
 11
-3.124221E-04
 21
0.621942
 31
0.000000
  0
LINE
  8
Layer0$C$L0
 67
     0
 10
0.195596
 20
0.831992
 30
0.000000
 11
-3.195306E-04
 21
0.636077
 31
0.000000
  0
LINE
  8
Layer0$C$L0
 67
     0
 10
0.181454
 20
0.831992
 30
0.000000
 11
-3.266392E-04
 21
0.650212
 31
0.000000
  0
LINE
  8
Layer0$C$L0
 67
     0
 10
0.167312
 20
0.831992
 30
0.000000
 11
-3.337478E-04
 21
0.664347
 31
0.000000
  0
LINE
  8
Layer0$C$L0
 67
     0
 10
0.153170
 20
0.831992
 30
0.000000
 11
-3.408563E-04
 21
0.678482
 31
0.000000
  0
LINE
  8
Layer0$C$L0
 67
     0
 10
0.139027
 20
0.831992
 30
0.000000
 11
-3.479649E-04
 21
0.692617
 31
0.000000
  0
LINE
  8
Layer0$C$L0
 67
     0
 10
0.124885
 20
0.831992
 30
0.000000
 11
-3.550735E-04
 21
0.706752
 31
0.000000
  0
LINE
  8
Layer0$C$L0
 67
     0
 10
0.110743
 20
0.831992
 30
0.000000
 11
-3.621821E-04
 21
0.720887
 31
0.000000
  0
LINE
  8
Layer0$C$L0
 67
     0
 10
9.638471E-02
 20
0.831776
 30
0.000000
 11
-1.499182E-04
 21
0.735241
 31
0.000000
  0
LINE
  8
Layer0$C$L0
 67
     0
 10
7.987581E-02
 20
0.829409
 30
0.000000
 11
2.217033E-03
 21
0.751750
 31
0.000000
  0
LINE
  8
Layer0$C$L0
 67
     0
 10
5.808144E-02
 20
0.821757
 30
0.000000
 11
9.868835E-03
 21
0.773544
 31
0.000000
  0
ENDBLK
  8
Layer0$C$L0
  0
BLOCK
  8
Layer0$C$L0
  2
*X6
 70
     1
 10
0.000000
 20
0.000000
  0
LINE
  8
Layer0$C$L0
 67
     0
 10
0.774478
 20
1.080228E-02
 30
0.000000
 11
0.820966
 21
5.729027E-02
 31
0.000000
  0
LINE
  8
Layer0$C$L0
 67
     0
 10
0.829011
 20
7.947817E-02
 30
0.000000
 11
0.752290
 21
2.756651E-03
 31
0.000000
  0
LINE
  8
Layer0$C$L0
 67
     0
 10
0.735646
 20
2.550570E-04
 30
0.000000
 11
0.831513
 21
9.612186E-02
 31
0.000000
  0
LINE
  8
Layer0$C$L0
 67
     0
 10
0.831760
 20
0.110511
 30
0.000000
 11
0.721249
 21
2.220446E-16
 31
0.000000
  0
LINE
  8
Layer0$C$L0
 67
     0
 10
0.707107
 20
2.220446E-16
 30
0.000000
 11
0.831743
 21
0.124637
 31
0.000000
  0
LINE
  8
Layer0$C$L0
 67
     0
 10
0.831727
 20
0.138763
 30
0.000000
 11
0.692965
 21
2.775558E-16
 31
0.000000
  0
LINE
  8
Layer0$C$L0
 67
     0
 10
0.678823
 20
2.220446E-16
 30
0.000000
 11
0.831711
 21
0.152888
 31
0.000000
  0
LINE
  8
Layer0$C$L0
 67
     0
 10
0.831695
 20
0.167014
 30
0.000000
 11
0.664680
 21
2.775558E-16
 31
0.000000
  0
LINE
  8
Layer0$C$L0
 67
     0
 10
0.650538
 20
2.220446E-16
 30
0.000000
 11
0.831679
 21
0.181140
 31
0.000000
  0
LINE
  8
Layer0$C$L0
 67
     0
 10
0.831662
 20
0.195266
 30
0.000000
 11
0.636396
 21
2.220446E-16
 31
0.000000
  0
LINE
  8
Layer0$C$L0
 67
     0
 10
0.622254
 20
2.220446E-16
 30
0.000000
 11
0.831646
 21
0.209392
 31
0.000000
  0
LINE
  8
Layer0$C$L0
 67
     0
 10
0.831630
 20
0.223518
 30
0.000000
 11
0.608112
 21
2.220446E-16
 31
0.000000
  0
LINE
  8
Layer0$C$L0
 67
     0
 10
0.593970
 20
2.220446E-16
 30
0.000000
 11
0.831614
 21
0.237644
 31
0.000000
  0
LINE
  8
Layer0$C$L0
 67
     0
 10
0.831598
 20
0.251770
 30
0.000000
 11
0.579828
 21
2.220446E-16
 31
0.000000
  0
LINE
  8
Layer0$C$L0
 67
     0
 10
0.565685
 20
1.665335E-16
 30
0.000000
 11
0.831581
 21
0.265896
 31
0.000000
  0
LINE
  8
Layer0$C$L0
 67
     0
 10
0.831565
 20
0.280022
 30
0.000000
 11
0.551543
 21
2.220446E-16
 31
0.000000
  0
LINE
  8
Layer0$C$L0
 67
     0
 10
0.537401
 20
1.665335E-16
 30
0.000000
 11
0.799398
 21
0.261997
 31
0.000000
  0
LINE
  8
Layer0$C$L0
 67
     0
 10
0.775868
 20
0.252609
 30
0.000000
 11
0.523259
 21
2.220446E-16
 31
0.000000
  0
LINE
  8
Layer0$C$L0
 67
     0
 10
0.509117
 20
1.665335E-16
 30
0.000000
 11
0.755684
 21
0.246567
 31
0.000000
  0
LINE
  8
Layer0$C$L0
 67
     0
 10
0.737297
 20
0.242322
 30
0.000000
 11
0.494975
 21
1.942890E-16
 31
0.000000
  0
LINE
  8
Layer0$C$L0
 67
     0
 10
0.480833
 20
1.942890E-16
 30
0.000000
 11
0.720071
 21
0.239238
 31
0.000000
  0
LINE
  8
Layer0$C$L0
 67
     0
 10
0.703660
 20
0.236969
 30
0.000000
 11
0.466690
 21
1.942890E-16
 31
0.000000
  0
LINE
  8
Layer0$C$L0
 67
     0
 10
0.452548
 20
1.665335E-16
 30
0.000000
 11
0.687849
 21
0.235300
 31
0.000000
  0
LINE
  8
Layer0$C$L0
 67
     0
 10
0.672498
 20
0.234091
 30
0.000000
 11
0.438406
 21
1.665335E-16
 31
0.000000
  0
LINE
  8
Layer0$C$L0
 67
     0
 10
0.424264
 20
1.665335E-16
 30
0.000000
 11
0.657526
 21
0.233262
 31
0.000000
  0
LINE
  8
Layer0$C$L0
 67
     0
 10
0.642870
 20
0.232748
 30
0.000000
 11
0.410122
 21
1.665335E-16
 31
0.000000
  0
LINE
  8
Layer0$C$L0
 67
     0
 10
0.395980
 20
1.665335E-16
 30
0.000000
 11
0.628472
 21
0.232492
 31
0.000000
  0
LINE
  8
Layer0$C$L0
 67
     0
 10
0.614284
 20
0.232446
 30
0.000000
 11
0.381838
 21
1.942890E-16
 31
0.000000
  0
LINE
  8
Layer0$C$L0
 67
     0
 10
0.367696
 20
1.665335E-16
 30
0.000000
 11
0.600279
 21
0.232583
 31
0.000000
  0
LINE
  8
Layer0$C$L0
 67
     0
 10
0.698925
 20
0.331229
 30
0.000000
 11
0.670736
 21
0.303041
 31
0.000000
  0
LINE
  8
Layer0$C$L0
 67
     0
 10
0.586454
 20
0.232900
 30
0.000000
 11
0.353553
 21
1.665335E-16
 31
0.000000
  0
LINE
  8
Layer0$C$L0
 67
     0
 10
0.694832
 20
0.341279
 30
0.000000
 11
0.652051
 21
0.298497
 31
0.000000
  0
LINE
  8
Layer0$C$L0
 67
     0
 10
0.572808
 20
0.233397
 30
0.000000
 11
0.339411
 21
1.665335E-16
 31
0.000000
  0
LINE
  8
Layer0$C$L0
 67
     0
 10
0.687522
 20
0.348110
 30
0.000000
 11
0.636267
 21
0.296856
 31
0.000000
  0
LINE
  8
Layer0$C$L0
 67
     0
 10
0.559352
 20
0.234083
 30
0.000000
 11
0.325269
 21
1.665335E-16
 31
0.000000
  0
LINE
  8
Layer0$C$L0
 67
     0
 10
0.678601
 20
0.353332
 30
0.000000
 11
0.621724
 21
0.296455
 31
0.000000
  0
LINE
  8
Layer0$C$L0
 67
     0
 10
0.546104
 20
0.234977
 30
0.000000
 11
0.311127
 21
1.665335E-16
 31
0.000000
  0
LINE
  8
Layer0$C$L0
 67
     0
 10
0.668387
 20
0.357260
 30
0.000000
 11
0.608008
 21
0.296881
 31
0.000000
  0
LINE
  8
Layer0$C$L0
 67
     0
 10
0.533080
 20
0.236096
 30
0.000000
 11
0.296985
 21
1.387779E-16
 31
0.000000
  0
LINE
  8
Layer0$C$L0
 67
     0
 10
0.657320
 20
0.360335
 30
0.000000
 11
0.595116
 21
0.298132
 31
0.000000
  0
LINE
  8
Layer0$C$L0
 67
     0
 10
0.520300
 20
0.237458
 30
0.000000
 11
0.282843
 21
1.387779E-16
 31
0.000000
  0
LINE
  8
Layer0$C$L0
 67
     0
 10
0.645792
 20
0.362949
 30
0.000000
 11
0.583081
 21
0.300238
 31
0.000000
  0
LINE
  8
Layer0$C$L0
 67
     0
 10
0.507779
 20
0.239079
 30
0.000000
 11
0.268701
 21
1.387779E-16
 31
0.000000
  0
LINE
  8
Layer0$C$L0
 67
     0
 10
0.633908
 20
0.365208
 30
0.000000
 11
0.571919
 21
0.303218
 31
0.000000
  0
LINE
  8
Layer0$C$L0
 67
     0
 10
0.495543
 20
0.240985
 30
0.000000
 11
0.254558
 21
1.387779E-16
 31
0.000000
  0
LINE
  8
Layer0$C$L0
 67
     0
 10
0.621771
 20
0.367213
 30
0.000000
 11
0.561640
 21
0.307082
 31
0.000000
  0
LINE
  8
Layer0$C$L0
 67
     0
 10
0.483622
 20
0.243205
 30
0.000000
 11
0.240416
 21
1.249001E-16
 31
0.000000
  0
LINE
  8
Layer0$C$L0
 67
     0
 10
0.609463
 20
0.369047
 30
0.000000
 11
0.552301
 21
0.311884
 31
0.000000
  0
LINE
  8
Layer0$C$L0
 67
     0
 10
0.472044
 20
0.245770
 30
0.000000
 11
0.226274
 21
1.387779E-16
 31
0.000000
  0
LINE
  8
Layer0$C$L0
 67
     0
 10
0.597058
 20
0.370784
 30
0.000000
 11
0.544015
 21
0.317741
 31
0.000000
  0
LINE
  8
Layer0$C$L0
 67
     0
 10
0.460838
 20
0.248706
 30
0.000000
 11
0.212132
 21
1.387779E-16
 31
0.000000
  0
LINE
  8
Layer0$C$L0
 67
     0
 10
0.584636
 20
0.372504
 30
0.000000
 11
0.536922
 21
0.324790
 31
0.000000
  0
LINE
  8
Layer0$C$L0
 67
     0
 10
0.450043
 20
0.252053
 30
0.000000
 11
0.197990
 21
1.249001E-16
 31
0.000000
  0
LINE
  8
Layer0$C$L0
 67
     0
 10
0.572253
 20
0.374264
 30
0.000000
 11
0.531185
 21
0.333196
 31
0.000000
  0
LINE
  8
Layer0$C$L0
 67
     0
 10
0.439750
 20
0.255903
 30
0.000000
 11
0.183848
 21
1.249001E-16
 31
0.000000
  0
LINE
  8
Layer0$C$L0
 67
     0
 10
0.559950
 20
0.376103
 30
0.000000
 11
0.526770
 21
0.342922
 31
0.000000
  0
LINE
  8
Layer0$C$L0
 67
     0
 10
0.430021
 20
0.260316
 30
0.000000
 11
0.169706
 21
1.110223E-16
 31
0.000000
  0
LINE
  8
Layer0$C$L0
 67
     0
 10
0.547763
 20
0.378057
 30
0.000000
 11
0.521339
 21
0.351633
 31
0.000000
  0
LINE
  8
Layer0$C$L0
 67
     0
 10
0.420813
 20
0.265250
 30
0.000000
 11
0.155563
 21
9.714451E-17
 31
0.000000
  0
LINE
  8
Layer0$C$L0
 67
     0
 10
0.535718
 20
0.380154
 30
0.000000
 11
0.506661
 21
0.351098
 31
0.000000
  0
LINE
  8
Layer0$C$L0
 67
     0
 10
0.412077
 20
0.270656
 30
0.000000
 11
0.141421
 21
8.326673E-17
 31
0.000000
  0
LINE
  8
Layer0$C$L0
 67
     0
 10
0.523826
 20
0.382405
 30
0.000000
 11
0.491984
 21
0.350563
 31
0.000000
  0
LINE
  8
Layer0$C$L0
 67
     0
 10
0.403817
 20
0.276538
 30
0.000000
 11
0.127279
 21
6.938894E-17
 31
0.000000
  0
LINE
  8
Layer0$C$L0
 67
     0
 10
0.512094
 20
0.384815
 30
0.000000
 11
0.477306
 21
0.350027
 31
0.000000
  0
LINE
  8
Layer0$C$L0
 67
     0
 10
0.396047
 20
0.282910
 30
0.000000
 11
0.113137
 21
5.551115E-17
 31
0.000000
  0
LINE
  8
Layer0$C$L0
 67
     0
 10
0.500529
 20
0.387392
 30
0.000000
 11
0.462629
 21
0.349492
 31
0.000000
  0
LINE
  8
Layer0$C$L0
 67
     0
 10
0.388780
 20
0.289785
 30
0.000000
 11
9.899495E-02
 21
4.163336E-17
 31
0.000000
  0
LINE
  8
Layer0$C$L0
 67
     0
 10
0.489154
 20
0.390159
 30
0.000000
 11
0.447952
 21
0.348957
 31
0.000000
  0
LINE
  8
Layer0$C$L0
 67
     0
 10
0.382053
 20
0.297200
 30
0.000000
 11
8.485281E-02
 21
3.469447E-17
 31
0.000000
  0
LINE
  8
Layer0$C$L0
 67
     0
 10
0.477992
 20
0.393139
 30
0.000000
 11
0.433274
 21
0.348421
 31
0.000000
  0
LINE
  8
Layer0$C$L0
 67
     0
 10
0.375954
 20
0.305243
 30
0.000000
 11
7.071068E-02
 21
3.469447E-17
 31
0.000000
  0
LINE
  8
Layer0$C$L0
 67
     0
 10
0.467070
 20
0.396359
 30
0.000000
 11
0.418597
 21
0.347886
 31
0.000000
  0
LINE
  8
Layer0$C$L0
 67
     0
 10
0.370592
 20
0.314024
 30
0.000000
 11
5.656854E-02
 21
3.122502E-17
 31
0.000000
  0
LINE
  8
Layer0$C$L0
 67
     0
 10
0.456439
 20
0.399870
 30
0.000000
 11
0.403919
 21
0.347351
 31
0.000000
  0
LINE
  8
Layer0$C$L0
 67
     0
 10
0.366105
 20
0.323678
 30
0.000000
 11
4.242641E-02
 21
2.775558E-17
 31
0.000000
  0
LINE
  8
Layer0$C$L0
 67
     0
 10
0.446143
 20
0.403717
 30
0.000000
 11
0.389242
 21
0.346815
 31
0.000000
  0
LINE
  8
Layer0$C$L0
 67
     0
 10
0.362566
 20
0.334282
 30
0.000000
 11
2.828427E-02
 21
2.602085E-17
 31
0.000000
  0
LINE
  8
Layer0$C$L0
 67
     0
 10
0.436232
 20
0.407948
 30
0.000000
 11
0.374564
 21
0.346280
 31
0.000000
  0
LINE
  8
Layer0$C$L0
 67
     0
 10
0.426750
 20
0.412608
 30
0.000000
 11
1.414214E-02
 21
2.168404E-17
 31
0.000000
  0
LINE
  8
Layer0$C$L0
 67
     0
 10
0.417760
 20
0.417760
 30
0.000000
 11
-9.860761E-32
 21
4.366820E-16
 31
0.000000
  0
LINE
  8
Layer0$C$L0
 67
     0
 10
0.409364
 20
0.423506
 30
0.000000
 11
-7.091582E-06
 21
1.413504E-02
 31
0.000000
  0
LINE
  8
Layer0$C$L0
 67
     0
 10
0.344346
 20
0.372630
 30
0.000000
 11
-1.418316E-05
 21
2.827009E-02
 31
0.000000
  0
LINE
  8
Layer0$C$L0
 67
     0
 10
0.401660
 20
0.429945
 30
0.000000
 11
0.354232
 21
0.382516
 31
0.000000
  0
LINE
  8
Layer0$C$L0
 67
     0
 10
0.330204
 20
0.372630
 30
0.000000
 11
-2.127475E-05
 21
4.240513E-02
 31
0.000000
  0
LINE
  8
Layer0$C$L0
 67
     0
 10
0.394766
 20
0.437192
 30
0.000000
 11
0.354232
 21
0.396658
 31
0.000000
  0
LINE
  8
Layer0$C$L0
 67
     0
 10
0.316061
 20
0.372630
 30
0.000000
 11
-2.836633E-05
 21
5.654018E-02
 31
0.000000
  0
LINE
  8
Layer0$C$L0
 67
     0
 10
0.388871
 20
0.445440
 30
0.000000
 11
0.354232
 21
0.410801
 31
0.000000
  0
LINE
  8
Layer0$C$L0
 67
     0
 10
0.301919
 20
0.372630
 30
0.000000
 11
-3.545791E-05
 21
7.067522E-02
 31
0.000000
  0
LINE
  8
Layer0$C$L0
 67
     0
 10
0.384309
 20
0.455020
 30
0.000000
 11
0.354232
 21
0.424943
 31
0.000000
  0
LINE
  8
Layer0$C$L0
 67
     0
 10
0.155608
 20
0.240461
 30
0.000000
 11
-4.254949E-05
 21
8.481026E-02
 31
0.000000
  0
LINE
  8
Layer0$C$L0
 67
     0
 10
0.287777
 20
0.372630
 30
0.000000
 11
0.156106
 21
0.240959
 31
0.000000
  0
LINE
  8
Layer0$C$L0
 67
     0
 10
0.381506
 20
0.466359
 30
0.000000
 11
0.353072
 21
0.437925
 31
0.000000
  0
LINE
  8
Layer0$C$L0
 67
     0
 10
0.141466
 20
0.240461
 30
0.000000
 11
-4.964108E-05
 21
9.894530E-02
 31
0.000000
  0
LINE
  8
Layer0$C$L0
 67
     0
 10
0.273635
 20
0.372630
 30
0.000000
 11
0.156106
 21
0.255101
 31
0.000000
  0
LINE
  8
Layer0$C$L0
 67
     0
 10
0.381482
 20
0.480477
 30
0.000000
 11
0.338930
 21
0.437925
 31
0.000000
  0
LINE
  8
Layer0$C$L0
 67
     0
 10
0.127324
 20
0.240461
 30
0.000000
 11
-5.673266E-05
 21
0.113080
 31
0.000000
  0
LINE
  8
Layer0$C$L0
 67
     0
 10
0.259493
 20
0.372630
 30
0.000000
 11
0.156106
 21
0.269243
 31
0.000000
  0
LINE
  8
Layer0$C$L0
 67
     0
 10
0.381269
 20
0.494406
 30
0.000000
 11
0.324788
 21
0.437925
 31
0.000000
  0
LINE
  8
Layer0$C$L0
 67
     0
 10
0.113182
 20
0.240461
 30
0.000000
 11
-6.382424E-05
 21
0.127215
 31
0.000000
  0
LINE
  8
Layer0$C$L0
 67
     0
 10
0.245351
 20
0.372630
 30
0.000000
 11
0.156106
 21
0.283385
 31
0.000000
  0
LINE
  8
Layer0$C$L0
 67
     0
 10
0.367127
 20
0.494406
 30
0.000000
 11
0.310646
 21
0.437925
 31
0.000000
  0
LINE
  8
Layer0$C$L0
 67
     0
 10
9.903964E-02
 20
0.240461
 30
0.000000
 11
-7.091582E-05
 21
0.141350
 31
0.000000
  0
LINE
  8
Layer0$C$L0
 67
     0
 10
0.231209
 20
0.372630
 30
0.000000
 11
0.156106
 21
0.297527
 31
0.000000
  0
LINE
  8
Layer0$C$L0
 67
     0
 10
0.352985
 20
0.494406
 30
0.000000
 11
0.296504
 21
0.437925
 31
0.000000
  0
LINE
  8
Layer0$C$L0
 67
     0
 10
8.489750E-02
 20
0.240461
 30
0.000000
 11
-7.800740E-05
 21
0.155485
 31
0.000000
  0
LINE
  8
Layer0$C$L0
 67
     0
 10
0.217067
 20
0.372630
 30
0.000000
 11
0.156106
 21
0.311669
 31
0.000000
  0
LINE
  8
Layer0$C$L0
 67
     0
 10
0.338842
 20
0.494406
 30
0.000000
 11
0.282361
 21
0.437925
 31
0.000000
  0
LINE
  8
Layer0$C$L0
 67
     0
 10
7.075536E-02
 20
0.240461
 30
0.000000
 11
-8.509899E-05
 21
0.169621
 31
0.000000
  0
LINE
  8
Layer0$C$L0
 67
     0
 10
0.202924
 20
0.372630
 30
0.000000
 11
0.156106
 21
0.325812
 31
0.000000
  0
LINE
  8
Layer0$C$L0
 67
     0
 10
0.324700
 20
0.494406
 30
0.000000
 11
0.268219
 21
0.437925
 31
0.000000
  0
LINE
  8
Layer0$C$L0
 67
     0
 10
5.661323E-02
 20
0.240461
 30
0.000000
 11
-9.219057E-05
 21
0.183756
 31
0.000000
  0
LINE
  8
Layer0$C$L0
 67
     0
 10
0.188782
 20
0.372630
 30
0.000000
 11
0.156106
 21
0.339954
 31
0.000000
  0
LINE
  8
Layer0$C$L0
 67
     0
 10
0.310558
 20
0.494406
 30
0.000000
 11
0.254077
 21
0.437925
 31
0.000000
  0
LINE
  8
Layer0$C$L0
 67
     0
 10
4.247109E-02
 20
0.240461
 30
0.000000
 11
-9.928215E-05
 21
0.197891
 31
0.000000
  0
LINE
  8
Layer0$C$L0
 67
     0
 10
0.174640
 20
0.372630
 30
0.000000
 11
0.156106
 21
0.354096
 31
0.000000
  0
LINE
  8
Layer0$C$L0
 67
     0
 10
0.296416
 20
0.494406
 30
0.000000
 11
0.239935
 21
0.437925
 31
0.000000
  0
LINE
  8
Layer0$C$L0
 67
     0
 10
2.832896E-02
 20
0.240461
 30
0.000000
 11
-1.063737E-04
 21
0.212026
 31
0.000000
  0
LINE
  8
Layer0$C$L0
 67
     0
 10
0.160498
 20
0.372630
 30
0.000000
 11
0.156106
 21
0.368238
 31
0.000000
  0
LINE
  8
Layer0$C$L0
 67
     0
 10
0.282274
 20
0.494406
 30
0.000000
 11
0.225793
 21
0.437925
 31
0.000000
  0
LINE
  8
Layer0$C$L0
 67
     0
 10
1.418682E-02
 20
0.240461
 30
0.000000
 11
-1.134653E-04
 21
0.226161
 31
0.000000
  0
LINE
  8
Layer0$C$L0
 67
     0
 10
0.268132
 20
0.494406
 30
0.000000
 11
0.211651
 21
0.437925
 31
0.000000
  0
LINE
  8
Layer0$C$L0
 67
     0
 10
0.253990
 20
0.494406
 30
0.000000
 11
0.197509
 21
0.437925
 31
0.000000
  0
LINE
  8
Layer0$C$L0
 67
     0
 10
0.239847
 20
0.494406
 30
0.000000
 11
0.183367
 21
0.437925
 31
0.000000
  0
LINE
  8
Layer0$C$L0
 67
     0
 10
0.225705
 20
0.494406
 30
0.000000
 11
0.169224
 21
0.437925
 31
0.000000
  0
LINE
  8
Layer0$C$L0
 67
     0
 10
0.211563
 20
0.494406
 30
0.000000
 11
0.156106
 21
0.438949
 31
0.000000
  0
LINE
  8
Layer0$C$L0
 67
     0
 10
0.197421
 20
0.494406
 30
0.000000
 11
0.156106
 21
0.453091
 31
0.000000
  0
LINE
  8
Layer0$C$L0
 67
     0
 10
0.183279
 20
0.494406
 30
0.000000
 11
0.156106
 21
0.467233
 31
0.000000
  0
LINE
  8
Layer0$C$L0
 67
     0
 10
0.169137
 20
0.494406
 30
0.000000
 11
0.156106
 21
0.481375
 31
0.000000
  0
ENDBLK
  8
Layer0$C$L0
  0
BLOCK
  8
Layer0$C$L0
  2
DRAWING_HIST_BLOCK
 70
     0
 10
0.000000
 20
0.000000
  0
POINT
  8
Layer0$C$L0
 67
     0
 10
0.000000
 20
0.000000
  0
LINE
  8
Layer0$C$L0
 67
     0
 10
-3.750000
 20
-0.125000
 30
0.000000
 11
0.000000
 21
-0.125000
 31
0.000000
  0
LINE
  8
Layer0$C$L0
 67
     0
 10
-3.750000
 20
-0.125000
 30
0.000000
 11
-3.750000
 21
0.000000
 31
0.000000
  0
LINE
  8
Layer0$C$L0
 67
     0
 10
-3.480000
 20
-0.125000
 30
0.000000
 11
-3.480000
 21
0.000000
 31
0.000000
  0
LINE
  8
Layer0$C$L0
 67
     0
 10
-2.920000
 20
-0.125000
 30
0.000000
 11
-2.920000
 21
0.000000
 31
0.000000
  0
LINE
  8
Layer0$C$L0
 67
     0
 10
-2.560000
 20
-0.125000
 30
0.000000
 11
-2.560000
 21
0.000000
 31
0.000000
  0
LINE
  8
Layer0$C$L0
 67
     0
 10
-0.660000
 20
-0.125000
 30
0.000000
 11
-0.660000
 21
0.000000
 31
0.000000
  0
LINE
  8
Layer0$C$L0
 67
     0
 10
-0.440000
 20
-0.125000
 30
0.000000
 11
-0.440000
 21
0.000000
 31
0.000000
  0
LINE
  8
Layer0$C$L0
 67
     0
 10
-0.2199999988
 20
-0.1250000000
 30
0.0000000000
 11
-0.2199999988
 21
0.0000000000
 31
0.0000000000
  0
TEXT
  8
Layer0$C$L0
 67
     0
  7
CADRASTD
 10
-3.710165
 20
-8.842492E-02
 30
0.000000
 40
6.200000E-02
  1
REV
 41
1.000000
 50
0.000000
 51
0.000000
 72
     5
 11
-3.540744
 21
-8.842492E-02
 31
0.000000
 71
0.000000
  0
TEXT
  8
Layer0$C$L0
 67
     0
  7
CADRASTD
 10
-3.395861
 20
-8.842492E-02
 30
0.000000
 40
6.200000E-02
  1
DATE
 41
1.000000
 50
0.000000
 51
0.000000
 72
     5
 11
-3.164439
 21
-8.842492E-02
 31
0.000000
 71
0.000000
  0
TEXT
  8
Layer0$C$L0
 67
     0
  7
CADRASTD
 10
-2.837097
 20
-8.842492E-02
 30
0.000000
 40
6.200000E-02
  1
ECO
 41
1.000000
 50
0.000000
 51
0.000000
 72
     5
 11
-2.667676
 21
-8.842492E-02
 31
0.000000
 71
0.000000
  0
TEXT
  8
Layer0$C$L0
 67
     0
  7
CADRASTD
 10
-2.048841
 20
-8.842492E-02
 30
0.000000
 40
6.200000E-02
  1
DESCRIPTION
 41
1.000000
 50
0.000000
 51
0.000000
 72
     5
 11
-1.383420
 21
-8.842492E-02
 31
0.000000
 71
0.000000
  0
TEXT
  8
Layer0$C$L0
 67
     0
  7
CADRASTD
 10
-0.599460
 20
-9.645067E-02
 30
0.000000
 40
6.200000E-02
  1
BY
 41
1.000000
 50
0.000000
 51
0.000000
 72
     5
 11
-0.492038
 21
-9.645067E-02
 31
0.000000
 71
0.000000
  0
TEXT
  8
Layer0$C$L0
 67
     0
  7
CADRASTD
 10
-0.374613
 20
-9.495687E-02
 30
0.000000
 40
6.200000E-02
  1
CK
 41
1.000000
 50
0.000000
 51
0.000000
 72
     5
 11
-0.267191
 21
-9.495687E-02
 31
0.000000
 71
0.000000
  0
TEXT
  8
Layer0$C$L0
 67
     0
  7
CADRASTD
 10
-0.1936162094
 20
-9.3750074506E-02
 30
0.0000000000
 40
6.2500000000E-02
  1
APP
 41
1.0000000000
 50
0.0000000000
 51
0.0000000000
 72
     5
 11
-2.2828550885E-02
 21
-9.3750074506E-02
 31
0.0000000000
 71
0.0000000000
  0
ENDBLK
  8
Layer0$C$L0
  0
BLOCK
  8
Layer0$C$L0
  2
LOGO
 70
     0
 10
0.000000
 20
0.000000
  0
LINE
  8
Layer0$C$L0
 67
     0
 10
4.644067
 20
0.318351
 30
0.000000
 11
4.799984
 21
0.371567
 31
0.000000
  0
INSERT
  8
Layer0$C$L0
 67
     0
  2
*X1
 10
0.000000
 20
0.000000
 30
0.000000
 41
1.000000
 42
1.000000
 43
1.000000
 50
0.000000
  0
INSERT
  8
Layer0$C$L0
 67
     0
  2
*X2
 10
0.000000
 20
0.000000
 30
0.000000
 41
1.000000
 42
1.000000
 43
1.000000
 50
0.000000
  0
INSERT
  8
Layer0$C$L0
 67
     0
  2
*X3
 10
0.000000
 20
0.000000
 30
0.000000
 41
1.000000
 42
1.000000
 43
1.000000
 50
0.000000
  0
INSERT
  8
Layer0$C$L0
 67
     0
  2
*X4
 10
0.000000
 20
0.000000
 30
0.000000
 41
1.000000
 42
1.000000
 43
1.000000
 50
0.000000
  0
INSERT
  8
Layer0$C$L0
 67
     0
  2
*X5
 10
0.000000
 20
0.000000
 30
0.000000
 41
1.000000
 42
1.000000
 43
1.000000
 50
0.000000
  0
INSERT
  8
Layer0$C$L0
 67
     0
  2
*X6
 10
0.000000
 20
0.000000
 30
0.000000
 41
1.000000
 42
1.000000
 43
1.000000
 50
0.000000
  0
ENDBLK
  8
Layer0$C$L0
  0
BLOCK
  8
Layer0$C$L0
  2
ASIZE-OUTLINE-LASER
 70
     0
 10
0.000000
 20
0.000000
  0
INSERT
  8
Layer0$C$L0
 67
     0
  2
DRAWING_HIST_BLOCK
 10
4.350000
 20
3.712500
 30
0.000000
 41
1.000000
 42
1.000000
 43
1.000000
 50
0.000000
  0
INSERT
  8
Layer0$C$L0
 67
     0
  2
LOGO
 10
-4.855631
 20
-2.658703
 30
0.000000
 41
0.400000
 42
0.400000
 43
0.400000
 50
0.000000
  0
POINT
  8
Layer0$C$L0
 67
     0
 10
0.300001
 20
-2.787500
  0
POINT
  8
Layer0$C$L0
 67
     0
 10
3.652525
 20
3.891653
  0
POINT
  8
Layer0$C$L0
 67
     0
 10
2.464603
 20
-3.031122
  0
TEXT
  8
Layer10$C$L10
 67
     0
  7
CADRASTD
 10
2.167001
 20
-2.607133
 30
0.000000
 40
8.000000E-02
  1
NOT TO BE USED FOR PRODUCTION
 41
0.875000
 50
0.000000
 51
0.000000
 72
     5
 11
4.177001
 21
-2.607133
 31
0.000000
 71
0.000000
  0
TEXT
  8
Layer10$C$L10
 67
     0
  7
CADRASTD
 10
2.552001
 20
-2.487133
 30
0.000000
 40
8.000000E-02
  1
OUTLINE DIMENSIONS
 41
0.875000
 50
0.000000
 51
0.000000
 72
     5
 11
3.792001
 21
-2.487133
 31
0.000000
 71
0.000000
  0
TEXT
  8
Layer0$C$L0
 67
     0
  7
CADRASTD
 10
-2.767811
 20
-2.624779
 30
0.000000
 40
6.000000E-02
  1
NEWBURYPORT,MA 01950
 41
1.000000
 50
0.000000
 51
0.000000
 72
     5
 11
-1.583855
 21
-2.624779
 31
0.000000
 71
0.000000
  0
TEXT
  8
Layer0$C$L0
 67
     0
  7
CADRASTD
 10
-2.770301
 20
-2.529800
 30
0.000000
 40
6.000000E-02
  1
374 MERRIMAC STREET
 41
1.000000
 50
0.000000
 51
0.000000
 72
     5
 11
-1.646345
 21
-2.529800
 31
0.000000
 71
0.000000
  0
TEXT
  8
Layer0$C$L0
 67
     0
  7
CADRASTD
 10
-2.772790
 20
-2.434821
 30
0.000000
 40
6.000000E-02
  1
FERRAZ SHAWMUT INC.
 41
1.000000
 50
0.000000
 51
0.000000
 72
     5
 11
-1.648834
 21
-2.434821
 31
0.000000
 71
0.000000
  0
POINT
  8
Layer0$C$L0
 67
     0
 10
-4.900000
 20
-2.287500
  0
POINT
  8
Layer0$C$L0
 67
     0
 10
-4.900000
 20
-2.287500
  0
TEXT
  8
Layer10$C$L10
 67
     0
  7
CADRASTD
 10
-3.065803
 20
-3.247500
 30
0.000000
 40
8.000001E-02
  1
DATE:
 41
0.812500
 50
0.000000
 51
0.000000
 72
     5
 11
-2.755803
 21
-3.247500
 31
0.000000
 71
0.000000
  0
TEXT
  8
Layer10$C$L10
 67
     0
  7
CADRASTD
 10
-3.065803
 20
-3.067500
 30
0.000000
 40
8.000001E-02
  1
SIGN:
 41
0.812500
 50
0.000000
 51
0.000000
 72
     5
 11
-2.755803
 21
-3.067500
 31
0.000000
 71
0.000000
  0
TEXT
  8
Layer10$C$L10
 67
     0
  7
CADRASTD
 10
-4.870124
 20
-3.067501
 30
0.000000
 40
8.000001E-02
  1
SIGN:
 41
0.812500
 50
0.000000
 51
0.000000
 72
     5
 11
-4.560124
 21
-3.067501
 31
0.000000
 71
0.000000
  0
TEXT
  8
Layer10$C$L10
 67
     0
  7
CADRASTD
 10
-4.870124
 20
-3.247500
 30
0.000000
 40
8.000001E-02
  1
DATE:
 41
0.812500
 50
0.000000
 51
0.000000
 72
     5
 11
-4.560124
 21
-3.247500
 31
0.000000
 71
0.000000
  0
LINE
  8
Layer0$C$L0
 67
     0
 10
3.477350
 20
3.813368
 30
0.000000
 11
4.400001
 21
3.813368
 31
0.000000
  0
TEXT
  8
Layer0$C$L0
 67
     0
  7
CADRASTD
 10
2.376839
 20
3.813577
 30
0.000000
 40
0.100000
  1
CONTROL No:
 41
1.000000
 50
0.000000
 51
0.000000
 72
     5
 11
3.450099
 21
3.813577
 31
0.000000
 71
0.000000
  0
TEXT
  8
Layer10$C$L10
 67
     0
  7
CADRASTD
 10
-2.274999
 20
-2.787502
 30
0.000000
 40
8.000000E-02
  1
%%u%%u
 41
1.000000
 50
0.000000
 51
0.000000
 72
     5
 11
-2.274999
 21
-2.787502
 31
0.000000
 71
0.000000
  0
TEXT
  8
Layer10$C$L10
 67
     0
  7
CADRASTD
 10
-2.864303
 20
-2.827502
 30
0.000000
 40
8.000000E-02
  1
%%uDESIGN ENGINEER%%u
 41
1.000000
 50
0.000000
 51
0.000000
 72
     5
 11
-1.685695
 21
-2.827502
 31
0.000000
 71
0.000000
  0
TEXT
  8
Layer10$C$L10
 67
     0
  7
CADRASTD
 10
-4.024999
 20
-2.787502
 30
0.000000
 40
8.000000E-02
  1
%%u%%u
 41
1.000000
 50
0.000000
 51
0.000000
 72
     5
 11
-4.024999
 21
-2.787502
 31
0.000000
 71
0.000000
  0
TEXT
  8
Layer10$C$L10
 67
     0
  7
CADRASTD
 10
-4.614303
 20
-2.827502
 30
0.000000
 40
8.000000E-02
  1
%%uPRODUCT MANAGER%%u
 41
1.000000
 50
0.000000
 51
0.000000
 72
     5
 11
-3.435695
 21
-2.827502
 31
0.000000
 71
0.000000
  0
LINE
  8
Layer0$C$L0
 67
     0
 10
-1.399999
 20
-2.707502
 30
0.000000
 11
-4.899999
 21
-2.707502
 31
0.000000
  0
LINE
  8
Layer0$C$L0
 67
     0
 10
-3.149999
 20
-3.287500
 30
0.000000
 11
-3.149999
 21
-2.707502
 31
0.000000
  0
LINE
  8
Layer0$C$L0
 67
     0
 10
2.000002
 20
-3.287500
 30
0.000000
 11
2.000002
 21
-2.287500
 31
0.000000
  0
LINE
  8
Layer0$C$L0
 67
     0
 10
2.000002
 20
-2.766401
 30
0.000000
 11
4.350000
 21
-2.766401
 31
0.000000
  0
LINE
  8
Layer0$C$L0
 67
     0
 10
4.350000
 20
-2.287500
 30
0.000000
 11
-4.899999
 21
-2.287500
 31
0.000000
  0
LINE
  8
Layer0$C$L0
 67
     0
 10
-1.399999
 20
-3.287500
 30
0.000000
 11
-1.399999
 21
-2.287500
 31
0.000000
  0
LINE
  8
Layer2$C$L2
 67
     0
 10
-4.9499995232
 20
3.7624997616
 30
0.0000000000
 11
-4.9499995232
 21
-3.3375000000
 31
0.0000000000
  0
LINE
  8
Layer2$C$L2
 67
     0
 10
4.4000004768
 20
3.7624997616
 30
0.0000000000
 11
4.4000004768
 21
-3.3375000000
 31
0.0000000000
  0
LINE
  8
Layer2$C$L2
 67
     0
 10
4.4000004768
 20
-3.3375000000
 30
0.0000000000
 11
-4.9499995232
 21
-3.3375000000
 31
0.0000000000
  0
LINE
  8
Layer2$C$L2
 67
     0
 10
4.4000004768
 20
3.7624997616
 30
0.0000000000
 11
-4.9499995232
 21
3.7624997616
 31
0.0000000000
  0
LINE
  8
Layer2$C$L2
 67
     0
 10
-4.8999995232
 20
3.7124997616
 30
0.0000000000
 11
-4.8999995232
 21
-3.2875000000
 31
0.0000000000
  0
LINE
  8
Layer2$C$L2
 67
     0
 10
4.3500004768
 20
3.7124997616
 30
0.0000000000
 11
-4.8999995232
 21
3.7124997616
 31
0.0000000000
  0
LINE
  8
Layer2$C$L2
 67
     0
 10
4.3500004768
 20
3.7124997616
 30
0.0000000000
 11
4.3500004768
 21
-3.2875000000
 31
0.0000000000
  0
LINE
  8
Layer2$C$L2
 67
     0
 10
4.3500004768
 20
-3.2875000000
 30
0.0000000000
 11
-4.8999995232
 21
-3.2875000000
 31
0.0000000000
  0
ENDBLK
  8
Layer2$C$L2
  0
ENDSEC
  0
SECTION
  2
ENTITIES
  0
TEXT
  8
Layer220$C$L220
 67
     0
  7
CADRASTD
 10
0.3433329322
 20
-2.2434988780
 30
0.0000000000
 40
6.2000002233E-02
  1
IZLT
 41
1.0000000000
 50
0.0000000000
 51
0.0000000000
 72
     5
 11
0.5747542978
 21
-2.2434988780
 31
0.0000000000
 71
0.0000000000
  0
TEXT
  8
Layer220$C$L220
 67
     0
  7
CADRASTD
 10
4.1552897699
 20
3.4714998588
 30
0.0000000000
 40
6.2000002233E-02
  1
N/A
 41
1.0000000000
 50
0.0000000000
 51
0.0000000000
 72
     5
 11
4.3247111333
 21
3.4714998588
 31
0.0000000000
 71
0.0000000000
  0
TEXT
  8
Layer220$C$L220
 67
     0
  7
CADRASTD
 10
3.9352897830
 20
3.4714998588
 30
0.0000000000
 40
6.2000002233E-02
  1
N/A
 41
1.0000000000
 50
0.0000000000
 51
0.0000000000
 72
     5
 11
4.1047111464
 21
3.4714998588
 31
0.0000000000
 71
0.0000000000
  0
TEXT
  8
Layer220$C$L220
 67
     0
  7
CADRASTD
 10
3.7442999057
 20
3.8372790377
 30
0.0000000000
 40
0.1000000015
  1
9129
 41
1.0000000000
 50
0.0000000000
 51
0.0000000000
 72
     5
 11
4.1175601649
 21
3.8372790377
 31
0.0000000000
 71
0.0000000000
  0
TEXT
  8
Layer0$C$L0
 67
     0
  7
CADRASTD
 10
2.1000737696
 20
-1.6978004323
 30
0.0000000000
 40
6.2000002233E-02
  1
NOTES:
 41
1.0000000000
 50
0.0000000000
 51
0.0000000000
 72
     5
 11
2.4554951396
 21
-1.6978004323
 31
0.0000000000
 71
0.0000000000
  0
TEXT
  8
Layer0$C$L0
 67
     0
  7
CADRASTD
 10
2.1000737696
 20
-1.8838004315
 30
0.0000000000
 40
6.2000002233E-02
  1
    1. UNLESS OTHERWISE SPECIFIED
 41
1.0000000000
 50
0.0000000000
 51
0.0000000000
 72
     5
 11
4.1294951999
 21
-1.8838004315
 31
0.0000000000
 71
0.0000000000
  0
TEXT
  8
Layer0$C$L0
 67
     0
  7
CADRASTD
 10
2.1000737696
 20
-1.9768004311
 30
0.0000000000
 40
6.2000002233E-02
  1
   MATERIAL COMPOSITION AND RATING:
 41
1.0000000000
 50
0.0000000000
 51
0.0000000000
 72
     5
 11
4.2534952044
 21
-1.9768004311
 31
0.0000000000
 71
0.0000000000
  0
TEXT
  8
Layer0$C$L0
 67
     0
  7
CADRASTD
 10
2.1000737696
 20
-2.0698004308
 30
0.0000000000
 40
6.2000002233E-02
  1
   BASE - THERMOSET 150%%dC RTI
 41
1.0000000000
 50
0.0000000000
 51
0.0000000000
 72
     5
 11
3.8814951910
 21
-2.0698004308
 31
0.0000000000
 71
0.0000000000
  0
TEXT
  8
Layer0$C$L0
 67
     0
  7
CADRASTD
 10
2.1000737696
 20
-2.1628004304
 30
0.0000000000
 40
6.2000002233E-02
  1
   CONNECTOR-COPPER, TIN PLATED.
 41
1.0000000000
 50
0.0000000000
 51
0.0000000000
 72
     5
 11
4.0674951977
 21
-2.1628004304
 31
0.0000000000
 71
0.0000000000
  0
TEXT
  8
Layer220$C$L220
 67
     0
  7
CADRASTD
 10
0.7214704648
 20
-2.2434988780
 30
0.0000000000
 40
6.2000002233E-02
  1
LR32169
 41
1.0000000000
 50
0.0000000000
 51
0.0000000000
 72
     5
 11
1.1388918371
 21
-2.2434988780
 31
0.0000000000
 71
0.0000000000
  0
TEXT
  8
Layer220$C$L220
 67
     0
  7
CADRASTD
 10
-0.1414190678
 20
-2.2434988780
 30
0.0000000000
 40
6.2000002233E-02
  1
E52283
 41
1.0000000000
 50
0.0000000000
 51
0.0000000000
 72
     5
 11
0.2140023022
 21
-2.2434988780
 31
0.0000000000
 71
0.0000000000
  0
TEXT
  8
Layer0$C$L0
 67
     0
  7
CADRASTD
 10
-0.9388614449
 20
-2.6648511887
 30
0.0000000000
 40
0.1250000000
  1
FUSE,BLOCK 300V-100A
 41
1.0000000000
 50
0.0000000000
 51
0.0000000000
 72
     5
 11
1.5277138721
 21
-2.6648511887
 31
0.0000000000
 71
0.0000000000
  0
TEXT
  8
Layer0$C$L0
 67
     0
  7
CADRASTD
 10
-0.1263614628
 20
-2.8523511887
 30
0.0000000000
 40
0.1250000000
  1
CLASS T
 41
1.0000000000
 50
0.0000000000
 51
0.0000000000
 72
     5
 11
0.7152138542
 21
-2.8523511887
 31
0.0000000000
 71
0.0000000000
  0
TEXT
  8
Layer0$C$L0
 67
     0
  7
CADRASTD
 10
-6.3861456877E-02
 20
-3.0398511887
 30
0.0000000000
 40
0.1250000000
  1
1 POLE
 41
1.0000000000
 50
0.0000000000
 51
0.0000000000
 72
     5
 11
0.6527138602
 21
-3.0398511887
 31
0.0000000000
 71
0.0000000000
  0
TEXT
  8
Layer0$C$L0
 67
     0
  7
CADRASTD
 10
-2.4793355658
 20
-2.2434984693
 30
0.0000000000
 40
6.2000002233E-02
  1
50
 41
1.0000000000
 50
0.0000000000
 51
0.0000000000
 72
     5
 11
-2.3719142046
 21
-2.2434984693
 31
0.0000000000
 71
0.0000000000
  0
TEXT
  8
Layer0$C$L0
 67
     0
  7
CADRASTD
 10
-1.6191133515
 20
-2.2434984693
 30
0.0000000000
 40
6.2000002233E-02
  1
BOX
 41
1.0000000000
 50
0.0000000000
 51
0.0000000000
 72
     5
 11
-1.4496919882
 21
-2.2434984693
 31
0.0000000000
 71
0.0000000000
  0
TEXT
  8
Layer0$C$L0
 67
     0
  7
CADRASTD
 10
-0.9316272830
 20
-2.2434984693
 30
0.0000000000
 40
6.2000002233E-02
  1
75
 41
1.0000000000
 50
0.0000000000
 51
0.0000000000
 72
     5
 11
-0.8242059218
 21
-2.2434984693
 31
0.0000000000
 71
0.0000000000
  0
TEXT
  8
Layer0$C$L0
 67
     0
  7
CADRASTD
 10
-0.6171551625
 20
-2.2434984693
 30
0.0000000000
 40
6.2000002233E-02
  1
CU ONLY
 41
1.0000000000
 50
0.0000000000
 51
0.0000000000
 72
     5
 11
-0.1997337902
 21
-2.2434984693
 31
0.0000000000
 71
0.0000000000
  0
TEXT
  8
Layer0$C$L0
 67
     0
  7
CADRASTD
 10
0.9405823234
 20
3.4674936733
 30
0.0000000000
 40
6.2000002233E-02
  1
6-10-97
 41
1.0000000000
 50
0.0000000000
 51
0.0000000000
 72
     5
 11
1.3580036957
 21
3.4674936733
 31
0.0000000000
 71
0.0000000000
  0
TEXT
  8
Layer0$C$L0
 67
     0
  7
CADRASTD
 10
2.2915625724
 20
3.4647935829
 30
0.0000000000
 40
6.2000002233E-02
  1
INIT RELEASE
 41
1.0000000000
 50
0.0000000000
 51
0.0000000000
 72
     5
 11
3.0189839559
 21
3.4647935829
 31
0.0000000000
 71
0.0000000000
  0
TEXT
  8
Layer0$C$L0
 67
     0
  7
CADRASTD
 10
-1.8051133582
 20
-1.9151123094
 30
0.0000000000
 40
6.2000002233E-02
  1
CONNECTOR
 41
1.0000000000
 50
0.0000000000
 51
0.0000000000
 72
     5
 11
-1.2636919815
 21
-1.9151123094
 31
0.0000000000
 71
0.0000000000
  0
TEXT
  8
Layer0$C$L0
 67
     0
  7
CADRASTD
 10
-1.6501133497
 20
-2.0081123091
 30
0.0000000000
 40
6.2000002233E-02
  1
TYPE
 41
1.0000000000
 50
0.0000000000
 51
0.0000000000
 72
     5
 11
-1.4186919841
 21
-2.0081123091
 31
0.0000000000
 71
0.0000000000
  0
TEXT
  8
Layer0$C$L0
 67
     0
  7
CADRASTD
 10
3.7160143830
 20
3.4746576747
 30
0.0000000000
 40
6.2000002233E-02
  1
DBG
 41
1.0000000000
 50
0.0000000000
 51
0.0000000000
 72
     5
 11
3.8854357463
 21
3.4746576747
 31
0.0000000000
 71
0.0000000000
  0
TEXT
  8
Layer0$C$L0
 67
     0
  7
CADRASTD
 10
1.5327774189
 20
3.4710537395
 30
0.0000000000
 40
6.2000002233E-02
  1
N/A
 41
1.0000000000
 50
0.0000000000
 51
0.0000000000
 72
     5
 11
1.7021987823
 21
3.4710537395
 31
0.0000000000
 71
0.0000000000
  0
TEXT
  8
Layer0$C$L0
 67
     0
  7
CADRASTD
 10
0.6877799342
 20
3.4525059169
 30
0.0000000000
 40
9.6000005557E-02
  1
-
 41
1.0000000000
 50
0.0000000000
 51
0.0000000000
 72
     5
 11
0.7581097818
 21
3.4525059169
 31
0.0000000000
 71
0.0000000000
  0
LINE
  8
Layer30$C$L30
 62
     2
 67
     0
 10
4.1300003827
 20
3.4175000954
 30
0.0000000000
 11
4.1300003827
 21
3.5875000954
 31
0.0000000000
  0
LINE
  8
Layer30$C$L30
 62
     2
 67
     0
 10
3.9100003839
 20
3.4175000954
 30
0.0000000000
 11
3.9100003839
 21
3.5875000954
 31
0.0000000000
  0
LINE
  8
Layer30$C$L30
 62
     2
 67
     0
 10
3.6900004148
 20
3.4175000954
 30
0.0000000000
 11
3.6900004148
 21
3.5875000954
 31
0.0000000000
  0
LINE
  8
Layer30$C$L30
 62
     2
 67
     0
 10
1.7900004387
 20
3.4175000954
 30
0.0000000000
 11
1.7900004387
 21
3.5875000954
 31
0.0000000000
  0
LINE
  8
Layer30$C$L30
 62
     2
 67
     0
 10
1.4300005436
 20
3.4175000954
 30
0.0000000000
 11
1.4300005436
 21
3.5875000954
 31
0.0000000000
  0
LINE
  8
Layer30$C$L30
 62
     2
 67
     0
 10
0.8700006008
 20
3.4175000954
 30
0.0000000000
 11
0.8700006008
 21
3.5875000954
 31
0.0000000000
  0
LINE
  8
Layer30$C$L30
 62
     2
 67
     0
 10
0.6000006199
 20
3.4175000954
 30
0.0000000000
 11
0.6000006199
 21
3.5875000954
 31
0.0000000000
  0
LINE
  8
Layer30$C$L30
 62
     2
 67
     0
 10
0.6000006199
 20
3.4175000954
 30
0.0000000000
 11
4.3500003815
 21
3.4175000954
 31
0.0000000000
  0
TEXT
  8
Layer0$C$L0
 67
     0
  7
CADRASTD
 10
-4.8311884399
 20
-2.2434984693
 30
0.0000000000
 40
6.2000002233E-02
  1
31001T
 41
1.0000000000
 50
0.0000000000
 51
0.0000000000
 72
     5
 11
-4.4757670698
 21
-2.2434984693
 31
0.0000000000
 71
0.0000000000
  0
LINE
  8
Layer0$C$L0
 67
     0
 10
-4.8999989986
 20
-2.1374984682
 30
0.0000000000
 11
1.1885666604
 21
-2.1374984682
 31
0.0000000000
  0
LINE
  8
Layer0$C$L0
 67
     0
 10
-4.8923431513
 20
-1.7237261548
 30
0.0000000000
 11
1.1885666604
 21
-1.7237261548
 31
0.0000000000
  0
LINE
  8
Layer0$C$L0
 67
     0
 10
-4.4069566680
 20
-2.2874984741
 30
0.0000000000
 11
-4.4069566680
 21
-1.7237261548
 31
0.0000000000
  0
LINE
  8
Layer0$C$L0
 67
     0
 10
-3.7385555998
 20
-2.2874984741
 30
0.0000000000
 11
-3.7385555998
 21
-1.7237261548
 31
0.0000000000
  0
LINE
  8
Layer0$C$L0
 67
     0
 10
-2.8950971760
 20
-2.2874984741
 30
0.0000000000
 11
-2.8950971760
 21
-1.7237261548
 31
0.0000000000
  0
LINE
  8
Layer0$C$L0
 67
     0
 10
-1.9561527513
 20
-2.2874984741
 30
0.0000000000
 11
-1.9561527513
 21
-1.7237261548
 31
0.0000000000
  0
LINE
  8
Layer0$C$L0
 67
     0
 10
-0.1737084696
 20
-2.2874984741
 30
0.0000000000
 11
-0.1737084696
 21
-1.7237261548
 31
0.0000000000
  0
LINE
  8
Layer0$C$L0
 67
     0
 10
-1.1126527513
 20
-1.8707229449
 30
0.0000000000
 11
1.1885666604
 21
-1.8707229449
 31
0.0000000000
  0
LINE
  8
Layer0$C$L0
 67
     0
 10
0.6717955141
 20
-2.2874984741
 30
0.0000000000
 11
0.6717955141
 21
-1.7237261548
 31
0.0000000000
  0
LINE
  8
Layer0$C$L0
 67
     0
 10
1.1885666604
 20
-2.2874984741
 30
0.0000000000
 11
1.1885666604
 21
-1.7237261548
 31
0.0000000000
  0
LINE
  8
Layer0$C$L0
 67
     0
 10
0.2462915471
 20
-2.2874984741
 30
0.0000000000
 11
0.2462915471
 21
-1.8707229449
 31
0.0000000000
  0
TEXT
  8
Layer0$C$L0
 67
     0
  7
CADRASTD
 10
-0.7588912089
 20
-1.8282245480
 30
0.0000000000
 40
6.2000002233E-02
  1
WIRE
 41
1.0000000000
 50
0.0000000000
 51
0.0000000000
 72
     5
 11
-0.5274698433
 21
-1.8282245480
 31
0.0000000000
 71
0.0000000000
  0
TEXT
  8
Layer0$C$L0
 67
     0
  7
CADRASTD
 10
0.1953329202
 20
-1.8282245480
 30
0.0000000000
 40
6.2000002233E-02
  1
UL
 41
1.0000000000
 50
0.0000000000
 51
0.0000000000
 72
     5
 11
0.3027542813
 21
-1.8282245480
 31
0.0000000000
 71
0.0000000000
  0
TEXT
  8
Layer0$C$L0
 67
     0
  7
CADRASTD
 10
0.8454704870
 20
-1.8282245480
 30
0.0000000000
 40
6.2000002233E-02
  1
CSA
 41
1.0000000000
 50
0.0000000000
 51
0.0000000000
 72
     5
 11
1.0148918504
 21
-1.8282245480
 31
0.0000000000
 71
0.0000000000
  0
TEXT
  8
Layer0$C$L0
 67
     0
  7
CADRASTD
 10
-0.5241551384
 20
-2.0351107047
 30
0.0000000000
 40
6.2000002233E-02
  1
TYPE
 41
1.0000000000
 50
0.0000000000
 51
0.0000000000
 72
     5
 11
-0.2927337728
 21
-2.0351107047
 31
0.0000000000
 71
0.0000000000
  0
TEXT
  8
Layer0$C$L0
 67
     0
  7
CADRASTD
 10
-0.9316272830
 20
-2.0351107047
 30
0.0000000000
 40
6.2000002233E-02
  1
%%dC
 41
1.0000000000
 50
0.0000000000
 51
0.0000000000
 72
     5
 11
-0.8242059218
 21
-2.0351107047
 31
0.0000000000
 71
0.0000000000
  0
TEXT
  8
Layer0$C$L0
 67
     0
  7
CADRASTD
 10
-7.9419059659E-02
 20
-1.9886107045
 30
0.0000000000
 40
6.2000002233E-02
  1
FILE
 41
1.0000000000
 50
0.0000000000
 51
0.0000000000
 72
     5
 11
0.1520023059
 21
-1.9886107045
 31
0.0000000000
 71
0.0000000000
  0
TEXT
  8
Layer0$C$L0
 67
     0
  7
CADRASTD
 10
-4.8419055581E-02
 20
-2.0816107041
 30
0.0000000000
 40
6.2000002233E-02
  1
NO.
 41
1.0000000000
 50
0.0000000000
 51
0.0000000000
 72
     5
 11
0.1210023078
 21
-2.0816107041
 31
0.0000000000
 71
0.0000000000
  0
TEXT
  8
Layer0$C$L0
 67
     0
  7
CADRASTD
 10
0.3123329281
 20
-1.9886107045
 30
0.0000000000
 40
6.2000002233E-02
  1
GUIDE
 41
1.0000000000
 50
0.0000000000
 51
0.0000000000
 72
     5
 11
0.6057542960
 21
-1.9886107045
 31
0.0000000000
 71
0.0000000000
  0
TEXT
  8
Layer0$C$L0
 67
     0
  7
CADRASTD
 10
0.3743329304
 20
-2.0816107041
 30
0.0000000000
 40
6.2000002233E-02
  1
NO.
 41
1.0000000000
 50
0.0000000000
 51
0.0000000000
 72
     5
 11
0.5437542937
 21
-2.0816107041
 31
0.0000000000
 71
0.0000000000
  0
TEXT
  8
Layer0$C$L0
 67
     0
  7
CADRASTD
 10
0.7524704807
 20
-1.9886107045
 30
0.0000000000
 40
6.2000002233E-02
  1
REPORT
 41
1.0000000000
 50
0.0000000000
 51
0.0000000000
 72
     5
 11
1.1078918508
 21
-1.9886107045
 31
0.0000000000
 71
0.0000000000
  0
TEXT
  8
Layer0$C$L0
 67
     0
  7
CADRASTD
 10
0.8454704811
 20
-2.0816107041
 30
0.0000000000
 40
6.2000002233E-02
  1
NO.
 41
1.0000000000
 50
0.0000000000
 51
0.0000000000
 72
     5
 11
1.0148918445
 21
-2.0816107041
 31
0.0000000000
 71
0.0000000000
  0
TEXT
  8
Layer0$C$L0
 67
     0
  7
CADRASTD
 10
-4.7381884336
 20
-1.9616123096
 30
0.0000000000
 40
6.2000002233E-02
  1
P/N
 41
1.0000000000
 50
0.0000000000
 51
0.0000000000
 72
     5
 11
-4.5687670702
 21
-1.9616123096
 31
0.0000000000
 71
0.0000000000
  0
TEXT
  8
Layer0$C$L0
 67
     0
  7
CADRASTD
 10
-4.0954667349
 20
-2.2434984693
 30
0.0000000000
 40
6.2000002233E-02
  1
T
 41
1.0000000000
 50
0.0000000000
 51
0.0000000000
 72
     5
 11
-4.0500453760
 21
-2.2434984693
 31
0.0000000000
 71
0.0000000000
  0
TEXT
  8
Layer0$C$L0
 67
     0
  7
CADRASTD
 10
-4.1884667323
 20
-1.9151123094
 30
0.0000000000
 40
6.2000002233E-02
  1
FUSE
 41
1.0000000000
 50
0.0000000000
 51
0.0000000000
 72
     5
 11
-3.9570453667
 21
-1.9151123094
 31
0.0000000000
 71
0.0000000000
  0
TEXT
  8
Layer0$C$L0
 67
     0
  7
CADRASTD
 10
-4.2194667364
 20
-2.0081123091
 30
0.0000000000
 40
6.2000002233E-02
  1
CLASS
 41
1.0000000000
 50
0.0000000000
 51
0.0000000000
 72
     5
 11
-3.9260453685
 21
-2.0081123091
 31
0.0000000000
 71
0.0000000000
  0
TEXT
  8
Layer0$C$L0
 67
     0
  7
CADRASTD
 10
-3.5255370104
 20
-1.9151123094
 30
0.0000000000
 40
6.2000002233E-02
  1
RMS SYM
 41
1.0000000000
 50
0.0000000000
 51
0.0000000000
 72
     5
 11
-3.1081156381
 21
-1.9151123094
 31
0.0000000000
 71
0.0000000000
  0
TEXT
  8
Layer0$C$L0
 67
     0
  7
CADRASTD
 10
-3.4945370063
 20
-2.0081123091
 30
0.0000000000
 40
6.2000002233E-02
  1
RATING
 41
1.0000000000
 50
0.0000000000
 51
0.0000000000
 72
     5
 11
-3.1391156363
 21
-2.0081123091
 31
0.0000000000
 71
0.0000000000
  0
TEXT
  8
Layer0$C$L0
 67
     0
  7
CADRASTD
 10
-3.4325369863
 20
-2.2434984693
 30
0.0000000000
 40
6.2000002233E-02
  1
200K
 41
1.0000000000
 50
0.0000000000
 51
0.0000000000
 72
     5
 11
-3.2011156207
 21
-2.2434984693
 31
0.0000000000
 71
0.0000000000
  0
TEXT
  8
Layer0$C$L0
 67
     0
  7
CADRASTD
 10
-2.6033355584
 20
-1.9151123094
 30
0.0000000000
 40
6.2000002233E-02
  1
TORQUE
 41
1.0000000000
 50
0.0000000000
 51
0.0000000000
 72
     5
 11
-2.2479141883
 21
-1.9151123094
 31
0.0000000000
 71
0.0000000000
  0
TEXT
  8
Layer0$C$L0
 67
     0
  7
CADRASTD
 10
-2.6653355665
 20
-2.0081123091
 30
0.0000000000
 40
6.2000002233E-02
  1
(IN-LBS)
 41
1.0000000000
 50
0.0000000000
 51
0.0000000000
 72
     5
 11
-2.1859141920
 21
-2.0081123091
 31
0.0000000000
 71
0.0000000000
  0
LINE
  8
Layer0$C$L0
 67
     0
 10
-0.6431806104
 20
-2.2874984741
 30
0.0000000000
 11
-0.6431806104
 21
-1.8707229449
 31
0.0000000000
  0
LINE
  8
Layer0$C$L0
 67
     0
 10
-1.1126527513
 20
-2.2874984741
 30
0.0000000000
 11
-1.1126527513
 21
-1.7237261548
 31
0.0000000000
  0
TEXT
  8
Layer0$C$L0
 67
     0
  7
CADRASTD
 10
2.4618035410
 20
-3.1612930298
 30
0.0000000000
 40
0.2500000000
  1
700052
 41
1.0000000000
 50
0.0000000000
 51
0.0000000000
 72
     5
 11
3.8949541752
 21
-3.1612930298
 31
0.0000000000
 71
0.0000000000
  0
INSERT
  8
Layer0$C$L0
 67
     0
  2
ASIZE-OUTLINE-LASER
 10
0.000000
 20
0.000000
 30
0.000000
 41
1.000000
 42
1.000000
 43
1.000000
 50
0.000000
  0
DIMENSION
  8
Layer60$C$L60
 67
     0
  2
*D1
 70
   129
 10
0.4594734001
 20
3.4202833192
 53
0.0000000000
 11
-2.0311622668
 21
3.4202833192
  3
DIM2
100
AcDbAlignedDimension
 13
-4.3205265999
 23
2.7572824955
 14
0.4594734001
 24
2.7572824955
  0
DIMENSION
  8
Layer60$C$L60
 67
     0
  2
*D2
 70
   128
 10
-1.9305263811
 20
3.0666253583
 53
0.0000000000
 11
-3.1255264954
 21
3.0666253583
  3
DIM2
100
AcDbAlignedDimension
 13
-4.3205265999
 23
2.7572824955
 14
-1.9305263811
 24
2.6741266251
 50
180.0000000000
100
AcDbRotatedDimension
  0
DIMENSION
  8
Layer60$C$L60
 67
     0
  2
*D3
 70
   128
 10
0.8735521999
 20
2.7572824955
 53
0.0000000000
 11
0.8735521999
 21
2.5728213787
  3
DIM2
100
AcDbAlignedDimension
 13
-1.6326329708
 23
2.3822824955
 14
0.4594734001
 24
2.7572824955
 50
-90.0000000000
100
AcDbRotatedDimension
  0
DIMENSION
  8
Layer60$C$L60
 67
     0
  2
*D4
 70
   129
 10
1.5559897374
 20
2.7572824955
 53
0.0000000000
 11
1.5559897374
 21
2.0072824955
  3
DIM2
100
AcDbAlignedDimension
 13
0.4594734001
 23
1.2572824955
 14
0.4594734001
 24
2.7572824955
  0
DIMENSION
  8
Layer60$C$L60
 67
     0
  2
*D5
 70
   128
 10
0.8735521999
 20
1.6322824955
 53
0.0000000000
 11
0.8735521999
 21
1.9748091698
  3
DIM2
100
AcDbAlignedDimension
 13
-1.6326329708
 23
2.3822824955
 14
-1.6326329708
 24
1.6322824955
 50
-90.0000000000
100
AcDbRotatedDimension
  0
DIMENSION
  8
Layer60$C$L60
 67
     0
  2
*D6
 70
   129
 10
-1.4725349423
 20
1.0358679327
 53
0.0000000000
 11
-1.9305260520
 21
1.0358679327
  3
DIM2
100
AcDbAlignedDimension
 13
-2.3885171551
 23
1.6172835879
 14
-1.4725349423
 24
1.6172831111
  0
POLYLINE
  8
Layer0$C$L0
 67
     0
 10
0.0000000000
 20
0.0000000000
 30
0.0000000000
 66
     1
 70
     0
 40
0.0000000000
 41
0.0000000000
  0
VERTEX
  8
Layer0$C$L0
 67
     0
 10
-1.8347576204
 20
1.5528725263
 30
0.0000000000
 40
0.0000000000
 41
0.0000000000
  0
VERTEX
  8
Layer0$C$L0
 67
     0
 10
-1.1137278441
 20
1.0636613336
 30
0.0000000000
 40
0.0000000000
 41
0.0000000000
  0
VERTEX
  8
Layer0$C$L0
 67
     0
 10
-0.9803945048
 20
1.0636613336
 30
0.0000000000
 40
0.0000000000
 41
0.0000000000
  0
SEQEND
  8
Layer0$C$L0
 67
     0
  0
SOLID
  8
Layer0$C$L0
 67
     0
 10
-1.7252343223
 20
1.4417840772
 11
-1.6910595779
 21
1.4921529335
 12
-1.8347576204
 22
1.5528725263
 13
-1.8347576204
 23
1.5528725263
  0
TEXT
  8
Layer0$C$L0
 67
     0
  7
CADRASTD
 10
-0.9493945037
 20
1.0326613325
 30
0.0000000000
 40
6.2000002233E-02
  1
%%c .25 THRU,
 41
1.0000000000
 50
0.0000000000
 51
0.0000000000
 72
     5
 11
-0.2678531219
 21
1.0326613325
 31
0.0000000000
 71
0.0000000000
  0
TEXT
  8
Layer0$C$L0
 67
     0
  7
CADRASTD
 10
-0.9493945037
 20
0.9396613329
 30
0.0000000000
 40
6.2000002233E-02
  1
C'BORE %%c .50 X
 41
1.0000000000
 50
0.0000000000
 51
0.0000000000
 72
     5
 11
-8.1853115214E-02
 21
0.9396613329
 31
0.0000000000
 71
0.0000000000
  0
TEXT
  8
Layer0$C$L0
 67
     0
  7
CADRASTD
 10
-0.9493945037
 20
0.8466613333
 30
0.0000000000
 40
6.2000002233E-02
  1
.50 DEEP (2 PLCS)
 41
1.0000000000
 50
0.0000000000
 51
0.0000000000
 72
     5
 11
8.8026890904E-02
 21
0.8466613333
 31
0.0000000000
 71
0.0000000000
  0
LINE
  8
Layer160$C$L160
  6
CENTERLINE
 67
     0
 10
-2.2258336544
 20
1.6322824955
 30
0.0000000000
 11
-1.6326329708
 21
1.6322824955
 31
0.0000000000
  0
LINE
  8
Layer160$C$L160
  6
CENTERLINE
 67
     0
 10
-1.9305263811
 20
1.3355065584
 30
0.0000000000
 11
-1.9305263811
 21
1.9241266251
 31
0.0000000000
  0
LINE
  8
Layer160$C$L160
  6
CENTERLINE
 67
     0
 10
-1.9305263811
 20
2.0855065584
 30
0.0000000000
 11
-1.9305263811
 21
2.6741266251
 31
0.0000000000
  0
LINE
  8
Layer160$C$L160
  6
CENTERLINE
 67
     0
 10
-2.2258336544
 20
2.3822824955
 30
0.0000000000
 11
-1.6326329708
 21
2.3822824955
 31
0.0000000000
  0
ARC
  8
Layer20$C$L20
 67
     0
 10
-3.5709165448
 20
2.0081005740
 40
0.1500000000
100
AcDbArc
 50
146.5369590328
 51
303.4630409672
  0
ARC
  8
Layer20$C$L20
 67
     0
 10
-3.5709165448
 20
2.0081005740
 40
0.1500000000
100
AcDbArc
 50
326.5369590329
 51
483.4630409671
  0
LINE
  8
Layer20$C$L20
 67
     0
 10
-3.7101097161
 20
2.1048673384
 30
0.0000000000
 11
-3.4739342572
 21
1.8686918795
 31
0.0000000000
  0
LINE
  8
Layer20$C$L20
 67
     0
 10
-3.6674282245
 20
2.1470386605
 30
0.0000000000
 11
-3.4317629351
 21
1.9113733712
 31
0.0000000000
  0
ARC
  8
Layer20$C$L20
 67
     0
 10
-0.2889326268
 20
2.0081000972
 40
0.1500000000
100
AcDbArc
 50
236.5369590328
 51
393.4630409672
  0
ARC
  8
Layer20$C$L20
 67
     0
 10
-0.2889326268
 20
2.0081000972
 40
0.1500000000
100
AcDbArc
 50
56.5369590329
 51
213.4630409671
  0
LINE
  8
Layer20$C$L20
 67
     0
 10
-0.3864103639
 20
1.8681959532
 30
0.0000000000
 11
-0.1504469318
 21
2.1041593853
 31
0.0000000000
  0
LINE
  8
Layer20$C$L20
 67
     0
 10
-0.4287980132
 20
1.9106611176
 30
0.0000000000
 11
-0.1929120963
 21
2.1465470346
 31
0.0000000000
  0
LINE
  8
Layer20$C$L20
 67
     0
 10
0.4594734001
 20
1.2572824955
 30
0.0000000000
 11
0.4594734001
 21
2.7572824955
 31
0.0000000000
  0
CIRCLE
  5
3
100
AcDbEntity
  8
Layer20$C$L20
 67
     0
100
AcDbCircle
 10
-3.5715180077
 20
2.0072835879
 30
0.0000000000
 40
0.1695000000
  0
CIRCLE
  5
4
100
AcDbEntity
  8
Layer20$C$L20
 67
     0
100
AcDbCircle
 10
-0.2895340897
 20
2.0072831111
 30
0.0000000000
 40
0.1695000000
  0
LINE
  8
Layer20$C$L20
 67
     0
 10
-2.7085265790
 20
2.2598742129
 30
0.0000000000
 11
-2.9272765790
 21
2.1335789004
 31
0.0000000000
  0
LINE
  8
Layer20$C$L20
 67
     0
 10
-2.9272765790
 20
2.1335789004
 30
0.0000000000
 11
-2.9272765790
 21
1.8809882754
 31
0.0000000000
  0
LINE
  8
Layer20$C$L20
 67
     0
 10
-2.9272765790
 20
1.8809882754
 30
0.0000000000
 11
-2.7085265790
 21
1.7546929629
 31
0.0000000000
  0
LINE
  8
Layer20$C$L20
 67
     0
 10
-2.7085265790
 20
1.7546929629
 30
0.0000000000
 11
-2.4897765790
 21
1.8809882754
 31
0.0000000000
  0
LINE
  8
Layer20$C$L20
 67
     0
 10
-2.4897765790
 20
1.8809882754
 30
0.0000000000
 11
-2.4897765790
 21
2.1335789004
 31
0.0000000000
  0
LINE
  8
Layer20$C$L20
 67
     0
 10
-2.4897765790
 20
2.1335789004
 30
0.0000000000
 11
-2.7085265790
 21
2.2598742129
 31
0.0000000000
  0
CIRCLE
  5
5
100
AcDbEntity
  8
Layer20$C$L20
 67
     0
100
AcDbCircle
 10
-2.7085265790
 20
2.0072835879
 30
0.0000000000
 40
0.2187500000
  0
CIRCLE
  5
6
100
AcDbEntity
  8
Layer20$C$L20
 67
     0
100
AcDbCircle
 10
-2.7085366131
 20
2.0072378115
 30
0.0000000000
 40
0.3125000000
  0
CIRCLE
  5
7
100
AcDbEntity
  8
Layer20$C$L20
 67
     0
100
AcDbCircle
 10
-1.1525355527
 20
2.0072373347
 30
0.0000000000
 40
0.3125000000
  0
CIRCLE
  5
8
100
AcDbEntity
  8
Layer20$C$L20
 67
     0
100
AcDbCircle
 10
-1.1525255185
 20
2.0072831111
 30
0.0000000000
 40
0.2187500000
  0
LINE
  8
Layer20$C$L20
 67
     0
 10
-0.9337755185
 20
2.1335784236
 30
0.0000000000
 11
-1.1525255185
 21
2.2598737361
 31
0.0000000000
  0
LINE
  8
Layer20$C$L20
 67
     0
 10
-0.9337755185
 20
1.8809877986
 30
0.0000000000
 11
-0.9337755185
 21
2.1335784236
 31
0.0000000000
  0
LINE
  8
Layer20$C$L20
 67
     0
 10
-1.1525255185
 20
1.7546924861
 30
0.0000000000
 11
-0.9337755185
 21
1.8809877986
 31
0.0000000000
  0
LINE
  8
Layer20$C$L20
 67
     0
 10
-1.3712755185
 20
1.8809877986
 30
0.0000000000
 11
-1.1525255185
 21
1.7546924861
 31
0.0000000000
  0
LINE
  8
Layer20$C$L20
 67
     0
 10
-1.3712755185
 20
2.1335784236
 30
0.0000000000
 11
-1.3712755185
 21
1.8809877986
 31
0.0000000000
  0
LINE
  8
Layer20$C$L20
 67
     0
 10
-1.1525255185
 20
2.2598737361
 30
0.0000000000
 11
-1.3712755185
 21
2.1335784236
 31
0.0000000000
  0
LINE
  8
Layer20$C$L20
 67
     0
 10
-2.3885171551
 20
2.3972835879
 30
0.0000000000
 11
-2.3885171551
 21
1.6172835879
 31
0.0000000000
  0
LINE
  8
Layer20$C$L20
 67
     0
 10
-3.8885171551
 20
1.6172835879
 30
0.0000000000
 11
-2.3885171551
 21
1.6172835879
 31
0.0000000000
  0
LINE
  8
Layer20$C$L20
 67
     0
 10
-3.8885171551
 20
2.3972835879
 30
0.0000000000
 11
-2.3885171551
 21
2.3972835879
 31
0.0000000000
  0
LINE
  8
Layer20$C$L20
 67
     0
 10
-3.8885171551
 20
2.3972835879
 30
0.0000000000
 11
-3.8885171551
 21
1.6172835879
 31
0.0000000000
  0
LINE
  8
Layer20$C$L20
 67
     0
 10
-1.4725349423
 20
2.3972831111
 30
0.0000000000
 11
-1.4725349423
 21
1.6172831111
 31
0.0000000000
  0
LINE
  8
Layer20$C$L20
 67
     0
 10
2.7465057696E-02
 20
1.6172831111
 30
0.0000000000
 11
-1.4725349423
 21
1.6172831111
 31
0.0000000000
  0
LINE
  8
Layer20$C$L20
 67
     0
 10
2.7465057696E-02
 20
2.3972831111
 30
0.0000000000
 11
-1.4725349423
 21
2.3972831111
 31
0.0000000000
  0
LINE
  8
Layer20$C$L20
 67
     0
 10
2.7465057696E-02
 20
2.3972831111
 30
0.0000000000
 11
2.7465057696E-02
 21
1.6172831111
 31
0.0000000000
  0
LINE
  8
Layer20$C$L20
 67
     0
 10
-4.3205265999
 20
1.2572824955
 30
0.0000000000
 11
-4.3205265999
 21
2.7572824955
 31
0.0000000000
  0
LINE
  8
Layer20$C$L20
 67
     0
 10
0.4594734001
 20
1.2572824955
 30
0.0000000000
 11
0.4594734001
 21
2.7572824955
 31
0.0000000000
  0
CIRCLE
  5
9
100
AcDbEntity
  8
Layer20$C$L20
 67
     0
100
AcDbCircle
 10
-1.9305263811
 20
2.3822824955
 30
0.0000000000
 40
0.1250000000
  0
CIRCLE
  5
a
100
AcDbEntity
  8
Layer20$C$L20
 67
     0
100
AcDbCircle
 10
-1.9305263811
 20
2.3822824955
 30
0.0000000000
 40
0.2500000000
  0
CIRCLE
  5
b
100
AcDbEntity
  8
Layer20$C$L20
 67
     0
100
AcDbCircle
 10
-1.9305263811
 20
1.6322824955
 30
0.0000000000
 40
0.1250000000
  0
CIRCLE
  5
c
100
AcDbEntity
  8
Layer20$C$L20
 67
     0
100
AcDbCircle
 10
-1.9305263811
 20
1.6322824955
 30
0.0000000000
 40
0.2500000000
  0
LINE
  8
Layer20$C$L20
 67
     0
 10
0.4594734001
 20
1.2572824955
 30
0.0000000000
 11
-4.3205265999
 21
1.2572824955
 31
0.0000000000
  0
LINE
  8
Layer20$C$L20
 67
     0
 10
0.4594734001
 20
2.7572824955
 30
0.0000000000
 11
-4.3205265999
 21
2.7572824955
 31
0.0000000000
  0
LINE
  8
Layer20$C$L20
 67
     0
 10
0.4594734001
 20
2.4124823250
 30
0.0000000000
 11
-1.2275259294
 21
2.4124823250
 31
0.0000000000
  0
LINE
  8
Layer20$C$L20
 67
     0
 10
0.4594734001
 20
1.6020826660
 30
0.0000000000
 11
-1.2275259294
 21
1.6020826660
 31
0.0000000000
  0
LINE
  8
Layer20$C$L20
 67
     0
 10
-1.4775259294
 20
1.6020826660
 30
0.0000000000
 11
-1.4775259294
 21
2.4124823250
 31
0.0000000000
  0
ARC
  8
Layer20$C$L20
 67
     0
 10
-1.3525259294
 20
2.4124823250
 40
0.1250000000
100
AcDbArc
 50
0.0000000000
 51
180.0000000000
  0
ARC
  8
Layer20$C$L20
 67
     0
 10
-1.3525259294
 20
1.6020826660
 40
0.1250000000
100
AcDbArc
 50
180.0000000000
 51
360.0000000000
  0
LINE
  8
Layer20$C$L20
 67
     0
 10
-4.3205265999
 20
2.4124823250
 30
0.0000000000
 11
-2.6335268386
 21
2.4124823250
 31
0.0000000000
  0
LINE
  8
Layer20$C$L20
 67
     0
 10
-4.3205265999
 20
1.6020826660
 30
0.0000000000
 11
-2.6335268386
 21
1.6020826660
 31
0.0000000000
  0
LINE
  8
Layer20$C$L20
 67
     0
 10
-2.3835268386
 20
1.6020826660
 30
0.0000000000
 11
-2.3835268386
 21
2.4124823250
 31
0.0000000000
  0
ARC
  8
Layer20$C$L20
 67
     0
 10
-2.5085268386
 20
2.4124823250
 40
0.1250000000
100
AcDbArc
 50
0.0000000000
 51
180.0000000000
  0
ARC
  8
Layer20$C$L20
 67
     0
 10
-2.5085268386
 20
1.6020826660
 40
0.1250000000
100
AcDbArc
 50
180.0000000000
 51
360.0000000000
  0
DIMENSION
  8
Layer60$C$L60
 67
     0
  2
*D7
 70
   128
 10
1.3620314549
 20
0.5137393211
 53
0.0000000000
 11
1.3620314549
 21
-0.4030259979
  3
DIM2
100
AcDbAlignedDimension
 13
0.4594567343
 23
-1.3197913170
 14
-0.9337565116
 24
0.5137393211
 50
90.0000000000
100
AcDbRotatedDimension
  0
DIMENSION
  8
Layer60$C$L60
 67
     0
  2
*D8
 70
   129
 10
0.8649709788
 20
-1.3197913170
 53
0.0000000000
 11
0.8649709788
 21
-0.9447913170
  3
DIM2
100
AcDbAlignedDimension
 13
0.4594567343
 23
-0.5697913170
 14
0.4594567343
 24
-1.3197913170
  0
LINE
  8
Layer0$C$L0
 67
     0
 10
-0.4305349328
 20
-1.0697913170
 30
0.0000000000
 11
-0.4305349328
 21
-0.8197913170
 31
0.0000000000
  0
ARC
  8
Layer0$C$L0
 67
     0
 10
-0.5555349328
 20
-0.8197913170
 40
0.1250000000
100
AcDbArc
 50
0.0000000000
 51
90.0000000000
  0
ARC
  8
Layer0$C$L0
 67
     0
 10
-0.5555349328
 20
-1.0697913170
 40
0.1250000000
100
AcDbArc
 50
270.0000000000
 51
360.0000000000
  0
ARC
  8
Layer0$C$L0
 67
     0
 10
-3.3055349328
 20
-1.0697913170
 40
0.1250000000
100
AcDbArc
 50
180.0000000000
 51
270.0000000000
  0
ARC
  8
Layer0$C$L0
 67
     0
 10
-3.3055349328
 20
-0.8197913170
 40
0.1250000000
100
AcDbArc
 50
90.0000000000
 51
180.0000000000
  0
LINE
  8
Layer0$C$L0
 67
     0
 10
-3.4305349328
 20
-1.0697913170
 30
0.0000000000
 11
-3.4305349328
 21
-0.8197913170
 31
0.0000000000
  0
LINE
  8
Layer0$C$L0
 67
     0
 10
-3.3055349328
 20
-0.6947913170
 30
0.0000000000
 11
-0.5555349328
 21
-0.6947913170
 31
0.0000000000
  0
LINE
  8
Layer0$C$L0
 67
     0
 10
-3.3055349328
 20
-1.1947913170
 30
0.0000000000
 11
-0.5555349328
 21
-1.1947913170
 31
0.0000000000
  0
LINE
  8
Layer20$C$L20
 67
     0
 10
0.4594567343
 20
-1.3197913170
 30
0.0000000000
 11
-4.3205265999
 21
-1.3197913170
 31
0.0000000000
  0
LINE
  8
Layer20$C$L20
 67
     0
 10
0.4594567343
 20
-0.5697913170
 30
0.0000000000
 11
-4.3205265999
 21
-0.5697913170
 31
0.0000000000
  0
LINE
  8
Layer20$C$L20
 67
     0
 10
-4.3205265999
 20
-1.3197913170
 30
0.0000000000
 11
-4.3205265999
 21
-0.5697913170
 31
0.0000000000
  0
LINE
  8
Layer20$C$L20
 67
     0
 10
0.4594567343
 20
-1.3197913170
 30
0.0000000000
 11
0.4594567343
 21
-0.5697913170
 31
0.0000000000
  0
LINE
  8
Layer20$C$L20
 67
     0
 10
-1.4725344155
 20
0.2052086830
 30
0.0000000000
 11
2.7464593235E-02
 21
0.2052086830
 31
0.0000000000
  0
LINE
  8
Layer20$C$L20
 67
     0
 10
2.7464593235E-02
 20
0.2052086830
 30
0.0000000000
 11
2.7464593235E-02
 21
-0.5697913170
 31
0.0000000000
  0
LINE
  8
Layer20$C$L20
 67
     0
 10
-1.4725344155
 20
0.2052086830
 30
0.0000000000
 11
-1.4725344155
 21
-0.5697913170
 31
0.0000000000
  0
LINE
  8
Layer20$C$L20
 67
     0
 10
-0.8399964774
 20
0.2702086830
 30
0.0000000000
 11
-1.4649964774
 21
0.2702086830
 31
0.0000000000
  0
LINE
  8
Layer20$C$L20
 67
     0
 10
-1.4649964774
 20
0.2052086830
 30
0.0000000000
 11
-1.4649964774
 21
0.2702086830
 31
0.0000000000
  0
LINE
  8
Layer20$C$L20
 67
     0
 10
-0.8399964774
 20
0.2052086830
 30
0.0000000000
 11
-0.8399964774
 21
0.2702086830
 31
0.0000000000
  0
LINE
  8
Layer20$C$L20
 67
     0
 10
-1.3959964774
 20
0.2702086830
 30
0.0000000000
 11
-1.3959964774
 21
0.3402086830
 31
0.0000000000
  0
LINE
  8
Layer20$C$L20
 67
     0
 10
-0.9089964774
 20
0.2702086830
 30
0.0000000000
 11
-0.9089964774
 21
0.3402086830
 31
0.0000000000
  0
LINE
  8
Layer20$C$L20
 67
     0
 10
-1.0275065116
 20
0.3652143211
 30
0.0000000000
 11
-1.0275065116
 21
0.3402143211
 31
0.0000000000
  0
LINE
  8
Layer20$C$L20
 67
     0
 10
-1.0525065116
 20
0.3402143211
 30
0.0000000000
 11
-1.0275065116
 21
0.3652143211
 31
0.0000000000
  0
LINE
  8
Layer20$C$L20
 67
     0
 10
-1.4050947684
 20
0.3402143211
 30
0.0000000000
 11
-0.8999135184
 21
0.3402143211
 31
0.0000000000
  0
LINE
  8
Layer20$C$L20
 67
     0
 10
-1.2775065116
 20
0.3652143211
 30
0.0000000000
 11
-1.2525065116
 21
0.3402143211
 31
0.0000000000
  0
LINE
  8
Layer20$C$L20
 67
     0
 10
-1.2775065116
 20
0.3402143211
 30
0.0000000000
 11
-1.2775065116
 21
0.3652143211
 31
0.0000000000
  0
ARC
  8
Layer20$C$L20
 67
     0
 10
-0.9630635428
 20
0.4019234052
 40
0.1118159160
100
AcDbArc
 50
55.6153046982
 51
124.3846953018
  0
ARC
  8
Layer20$C$L20
 67
     0
 10
-1.1525065116
 20
9.5782992194E-02
 40
0.4179563289
100
AcDbArc
 50
72.4118066082
 51
107.5881933918
  0
ARC
  8
Layer20$C$L20
 67
     0
 10
-1.3419494803
 20
0.4019234052
 40
0.1118159160
100
AcDbArc
 50
55.6153046982
 51
124.3846953018
  0
LINE
  8
Layer20$C$L20
 67
     0
 10
-1.0262111991
 20
0.3402143211
 30
0.0000000000
 11
-1.0262111991
 21
0.4942010979
 31
0.0000000000
  0
LINE
  8
Layer20$C$L20
 67
     0
 10
-1.2788018241
 20
0.3402143211
 30
0.0000000000
 11
-1.2788018241
 21
0.4942010979
 31
0.0000000000
  0
LINE
  8
Layer20$C$L20
 67
     0
 10
-0.8999158866
 20
0.4942010979
 30
0.0000000000
 11
-0.8999158866
 21
0.3402143211
 31
0.0000000000
  0
LINE
  8
Layer20$C$L20
 67
     0
 10
-0.9337565116
 20
0.5137393211
 30
0.0000000000
 11
-0.8999158866
 21
0.4942010979
 31
0.0000000000
  0
LINE
  8
Layer20$C$L20
 67
     0
 10
-1.3712565116
 20
0.5137393211
 30
0.0000000000
 11
-0.9337565116
 21
0.5137393211
 31
0.0000000000
  0
LINE
  8
Layer20$C$L20
 67
     0
 10
-1.4050971366
 20
0.4942010979
 30
0.0000000000
 11
-1.3712565116
 21
0.5137393211
 31
0.0000000000
  0
LINE
  8
Layer20$C$L20
 67
     0
 10
-1.4050971366
 20
0.3402143211
 30
0.0000000000
 11
-1.4050971366
 21
0.4942010979
 31
0.0000000000
  0
LINE
  8
Layer20$C$L20
 67
     0
 10
-2.4559560632
 20
0.3402143211
 30
0.0000000000
 11
-2.4559560632
 21
0.4942010979
 31
0.0000000000
  0
LINE
  8
Layer20$C$L20
 67
     0
 10
-2.4559560632
 20
0.4942010979
 30
0.0000000000
 11
-2.4897966882
 21
0.5137393211
 31
0.0000000000
  0
LINE
  8
Layer20$C$L20
 67
     0
 10
-2.4897966882
 20
0.5137393211
 30
0.0000000000
 11
-2.9272966882
 21
0.5137393211
 31
0.0000000000
  0
LINE
  8
Layer20$C$L20
 67
     0
 10
-2.9272966882
 20
0.5137393211
 30
0.0000000000
 11
-2.9611373132
 21
0.4942010979
 31
0.0000000000
  0
LINE
  8
Layer20$C$L20
 67
     0
 10
-2.9611373132
 20
0.4942010979
 30
0.0000000000
 11
-2.9611373132
 21
0.3402143211
 31
0.0000000000
  0
LINE
  8
Layer20$C$L20
 67
     0
 10
-2.5822513757
 20
0.3402143211
 30
0.0000000000
 11
-2.5822513757
 21
0.4942010979
 31
0.0000000000
  0
LINE
  8
Layer20$C$L20
 67
     0
 10
-2.8348420007
 20
0.3402143211
 30
0.0000000000
 11
-2.8348420007
 21
0.4942010979
 31
0.0000000000
  0
ARC
  8
Layer20$C$L20
 67
     0
 10
-2.5191037194
 20
0.4019234052
 40
0.1118159160
100
AcDbArc
 50
55.6153046982
 51
124.3846953018
  0
ARC
  8
Layer20$C$L20
 67
     0
 10
-2.7085466882
 20
9.5782992194E-02
 40
0.4179563289
100
AcDbArc
 50
72.4118066082
 51
107.5881933918
  0
ARC
  8
Layer20$C$L20
 67
     0
 10
-2.8979896569
 20
0.4019234052
 40
0.1118159160
100
AcDbArc
 50
55.6153046982
 51
124.3846953018
  0
LINE
  8
Layer20$C$L20
 67
     0
 10
-2.5835466882
 20
0.3402143211
 30
0.0000000000
 11
-2.5835466882
 21
0.3652143211
 31
0.0000000000
  0
LINE
  8
Layer20$C$L20
 67
     0
 10
-2.5835466882
 20
0.3652143211
 30
0.0000000000
 11
-2.6085466882
 21
0.3402143211
 31
0.0000000000
  0
LINE
  8
Layer20$C$L20
 67
     0
 10
-2.8085466882
 20
0.3402143211
 30
0.0000000000
 11
-2.8335466882
 21
0.3652143211
 31
0.0000000000
  0
LINE
  8
Layer20$C$L20
 67
     0
 10
-2.8335466882
 20
0.3652143211
 30
0.0000000000
 11
-2.8335466882
 21
0.3402143211
 31
0.0000000000
  0
LINE
  8
Layer20$C$L20
 67
     0
 10
-2.9520567224
 20
0.2702086830
 30
0.0000000000
 11
-2.9520567224
 21
0.3402086830
 31
0.0000000000
  0
LINE
  8
Layer20$C$L20
 67
     0
 10
-2.4650567224
 20
0.2702086830
 30
0.0000000000
 11
-2.4650567224
 21
0.3402086830
 31
0.0000000000
  0
LINE
  8
Layer20$C$L20
 67
     0
 10
-2.9611396814
 20
0.3402086830
 30
0.0000000000
 11
-2.4559584314
 21
0.3402086830
 31
0.0000000000
  0
LINE
  8
Layer20$C$L20
 67
     0
 10
-3.0210567224
 20
0.2052086830
 30
0.0000000000
 11
-3.0210567224
 21
0.2702086830
 31
0.0000000000
  0
LINE
  8
Layer20$C$L20
 67
     0
 10
-2.3960567224
 20
0.2052086830
 30
0.0000000000
 11
-2.3960567224
 21
0.2702086830
 31
0.0000000000
  0
LINE
  8
Layer20$C$L20
 67
     0
 10
-3.0210567224
 20
0.2702086830
 30
0.0000000000
 11
-2.3960567224
 21
0.2702086830
 31
0.0000000000
  0
LINE
  8
Layer20$C$L20
 67
     0
 10
-2.3885187842
 20
0.2052086830
 30
0.0000000000
 11
-2.3885187842
 21
-0.5697913170
 31
0.0000000000
  0
LINE
  8
Layer20$C$L20
 67
     0
 10
-3.8885177930
 20
0.2052086830
 30
0.0000000000
 11
-3.8885177930
 21
-0.5697913170
 31
0.0000000000
  0
LINE
  8
Layer20$C$L20
 67
     0
 10
-2.3885187842
 20
0.2052086830
 30
0.0000000000
 11
-3.8885177930
 21
0.2052086830
 31
0.0000000000
  0
POLYLINE
  8
Layer220$C$L220
 67
     0
 10
0.0000000000
 20
0.0000000000
 30
0.0000000000
 66
     1
 70
     0
 40
0.0000000000
 41
0.0000000000
  0
VERTEX
  8
Layer220$C$L220
 67
     0
 10
3.1453466079
 20
-0.1046161587
 30
0.0000000000
 40
0.0000000000
 41
0.0000000000
  0
VERTEX
  8
Layer220$C$L220
 67
     0
 10
2.5979955291
 20
0.5665480254
 30
0.0000000000
 40
0.0000000000
 41
0.0000000000
  0
VERTEX
  8
Layer220$C$L220
 67
     0
 10
2.4979955276
 20
0.5665480254
 30
0.0000000000
 40
0.0000000000
 41
0.0000000000
  0
SEQEND
  8
Layer220$C$L220
 67
     0
  0
SOLID
  8
Layer220$C$L220
 67
     0
 10
3.0722338495
 20
3.3189940215E-02
 11
3.0250631159
 21
-5.2789658049E-03
 12
3.1453466079
 22
-0.1046161587
 13
3.1453466079
 23
-0.1046161587
  0
TEXT
  8
Layer220$C$L220
 67
     0
  7
CADRASTD
 10
1.8635741475
 20
0.5355480243
 30
0.0000000000
 40
6.2000002233E-02
  1
WIRE RANGE
 41
1.0000000000
 50
0.0000000000
 51
0.0000000000
 72
     5
 11
2.4669955265
 21
0.5355480243
 31
0.0000000000
 71
0.0000000000
  0
TEXT
  8
Layer220$C$L220
 67
     0
  7
CADRASTD
 10
1.8635741475
 20
0.4425480247
 30
0.0000000000
 40
6.2000002233E-02
  1
2/0-#14
 41
1.0000000000
 50
0.0000000000
 51
0.0000000000
 72
     5
 11
2.2809955198
 21
0.4425480247
 31
0.0000000000
 71
0.0000000000
  0
LINE
  8
Layer20$C$L20
 67
     0
 10
2.5729713440
 20
-1.3197913170
 30
0.0000000000
 11
2.5729713440
 21
-0.5697913170
 31
0.0000000000
  0
LINE
  8
Layer20$C$L20
 67
     0
 10
4.0729713440
 20
-1.3197913170
 30
0.0000000000
 11
4.0729713440
 21
-0.5697913170
 31
0.0000000000
  0
LINE
  8
Layer20$C$L20
 67
     0
 10
2.5729713440
 20
-1.3197913170
 30
0.0000000000
 11
4.0729713440
 21
-1.3197913170
 31
0.0000000000
  0
LINE
  8
Layer20$C$L20
 67
     0
 10
2.5729713440
 20
-0.5697913170
 30
0.0000000000
 11
2.9179713440
 21
-0.5697913170
 31
0.0000000000
  0
LINE
  8
Layer20$C$L20
 67
     0
 10
2.9179713440
 20
-0.6697913170
 30
0.0000000000
 11
3.7279713440
 21
-0.6697913170
 31
0.0000000000
  0
LINE
  8
Layer20$C$L20
 67
     0
 10
2.9179713440
 20
-0.6697913170
 30
0.0000000000
 11
2.9179713440
 21
-0.5697913170
 31
0.0000000000
  0
LINE
  8
Layer20$C$L20
 67
     0
 10
3.7279713440
 20
-0.6697913170
 30
0.0000000000
 11
3.7279713440
 21
-0.5697913170
 31
0.0000000000
  0
LINE
  8
Layer20$C$L20
 67
     0
 10
3.7279713440
 20
-0.5697913170
 30
0.0000000000
 11
4.0729713440
 21
-0.5697913170
 31
0.0000000000
  0
CIRCLE
  5
d
100
AcDbEntity
  8
Layer0$C$L0
 67
     0
100
AcDbCircle
 10
3.322972
 20
-0.232291
 30
0.000000
 40
0.218750
  0
LINE
  8
Layer0$C$L0
 67
     0
 10
3.531361
 20
-0.226810
 30
0.000000
 11
3.479885
 21
-0.278283
 31
0.000000
  0
LINE
  8
Layer0$C$L0
 67
     0
 10
3.120457
 20
-0.243869
 30
0.000000
 11
3.155232
 21
-0.278644
 31
0.000000
  0
LINE
  8
Layer0$C$L0
 67
     0
 10
3.111164
 20
-0.216884
 30
0.000000
 11
3.108708
 21
-0.209750
 31
0.000000
  0
LINE
  8
Layer0$C$L0
 67
     0
 10
3.153015
 20
-0.276425
 30
0.000000
 11
3.501671
 21
-0.256498
 31
0.000000
  0
LINE
  8
Layer0$C$L0
 67
     0
 10
3.523220
 20
-0.234948
 30
0.000000
 11
3.131142
 21
-0.254554
 31
0.000000
  0
LINE
  8
Layer0$C$L0
 67
     0
 10
3.132702
 20
-0.234086
 30
0.000000
 11
3.513241
 21
-0.212337
 31
0.000000
  0
LINE
  8
Layer0$C$L0
 67
     0
 10
3.111164
 20
-0.216884
 30
0.000000
 11
3.132702
 21
-0.234086
 31
0.000000
  0
LINE
  8
Layer0$C$L0
 67
     0
 10
3.132702
 20
-0.234086
 30
0.000000
 11
3.120457
 21
-0.243869
 31
0.000000
  0
LINE
  8
Layer0$C$L0
 67
     0
 10
3.538071
 20
-0.192502
 30
0.000000
 11
3.513241
 21
-0.212337
 31
0.000000
  0
LINE
  8
Layer0$C$L0
 67
     0
 10
3.513241
 20
-0.212337
 30
0.000000
 11
3.531361
 21
-0.226810
 31
0.000000
  0
LINE
  8
Layer0$C$L0
 67
     0
 10
3.537735
 20
-0.190724
 30
0.000000
 11
3.109528
 21
-0.212134
 31
0.000000
  0
LINE
  8
Layer0$C$L0
 67
     0
 10
3.132702
 20
-0.190587
 30
0.000000
 11
3.513241
 21
-0.168836
 31
0.000000
  0
LINE
  8
Layer0$C$L0
 67
     0
 10
3.112095
 20
-0.174127
 30
0.000000
 11
3.132702
 21
-0.190587
 31
0.000000
  0
LINE
  8
Layer0$C$L0
 67
     0
 10
3.132702
 20
-0.190587
 30
0.000000
 11
3.108708
 21
-0.209750
 31
0.000000
  0
LINE
  8
Layer0$C$L0
 67
     0
 10
3.528290
 20
-0.156816
 30
0.000000
 11
3.513241
 21
-0.168836
 31
0.000000
  0
LINE
  8
Layer0$C$L0
 67
     0
 10
3.513241
 20
-0.168836
 30
0.000000
 11
3.537182
 21
-0.187961
 31
0.000000
  0
LINE
  8
Layer0$C$L0
 67
     0
 10
3.524777
 20
-0.147870
 30
0.000000
 11
3.113754
 21
-0.168422
 31
0.000000
  0
LINE
  8
Layer0$C$L0
 67
     0
 10
3.132702
 20
-0.147086
 30
0.000000
 11
3.513241
 21
-0.125337
 31
0.000000
  0
LINE
  8
Layer0$C$L0
 67
     0
 10
3.124424
 20
-0.140473
 30
0.000000
 11
3.132702
 21
-0.147086
 31
0.000000
  0
LINE
  8
Layer0$C$L0
 67
     0
 10
3.132702
 20
-0.147086
 30
0.000000
 11
3.116505
 21
-0.160026
 31
0.000000
  0
LINE
  8
Layer0$C$L0
 67
     0
 10
3.501263
 20
-0.105548
 30
0.000000
 11
3.132927
 21
-0.123963
 31
0.000000
  0
LINE
  8
Layer0$C$L0
 67
     0
 10
3.146675
 20
-0.102788
 30
0.000000
 11
3.483364
 21
-8.354294E-02
 31
0.000000
  0
LINE
  8
Layer0$C$L0
 67
     0
 10
3.462689
 20
-6.397545E-02
 30
0.000000
 11
3.167160
 21
-7.875168E-02
 31
0.000000
  0
LINE
  8
Layer0$C$L0
 67
     0
 10
3.192562
 20
-5.666459E-02
 30
0.000000
 11
3.432522
 21
-4.295075E-02
 31
0.000000
  0
LINE
  8
Layer0$C$L0
 67
     0
 10
3.390125
 20
-2.410424E-02
 30
0.000000
 11
3.235386
 21
-3.184044E-02
 31
0.000000
  0
ARC
  8
Layer0$C$L0
 67
     0
 10
3.317318
 20
-6.091034E-02
 40
0.271440
100
AcDbArc
 50
232.484613
 51
307.515388
  0
LINE
  8
Layer20$C$L20
 67
     0
 10
3.0703994751
 20
0.3402143211
 30
0.0000000000
 11
3.0703994751
 21
0.4942010979
 31
0.0000000000
  0
LINE
  8
Layer20$C$L20
 67
     0
 10
3.0703994751
 20
0.4942010979
 30
0.0000000000
 11
3.1042401001
 21
0.5137393211
 31
0.0000000000
  0
LINE
  8
Layer20$C$L20
 67
     0
 10
3.1042401001
 20
0.5137393211
 30
0.0000000000
 11
3.5417401001
 21
0.5137393211
 31
0.0000000000
  0
LINE
  8
Layer20$C$L20
 67
     0
 10
3.5417401001
 20
0.5137393211
 30
0.0000000000
 11
3.5755807251
 21
0.4942010979
 31
0.0000000000
  0
LINE
  8
Layer20$C$L20
 67
     0
 10
3.5755807251
 20
0.4942010979
 30
0.0000000000
 11
3.5755807251
 21
0.3402143211
 31
0.0000000000
  0
LINE
  8
Layer20$C$L20
 67
     0
 10
3.1966947876
 20
0.3402143211
 30
0.0000000000
 11
3.1966947876
 21
0.4942010979
 31
0.0000000000
  0
LINE
  8
Layer20$C$L20
 67
     0
 10
3.4492854126
 20
0.3402143211
 30
0.0000000000
 11
3.4492854126
 21
0.4942010979
 31
0.0000000000
  0
ARC
  8
Layer20$C$L20
 67
     0
 10
3.1335471313
 20
0.4019234052
 40
0.1118159160
100
AcDbArc
 50
55.6153046982
 51
124.3846953018
  0
ARC
  8
Layer20$C$L20
 67
     0
 10
3.3229901001
 20
9.5782992194E-02
 40
0.4179563289
100
AcDbArc
 50
72.4118066082
 51
107.5881933918
  0
ARC
  8
Layer20$C$L20
 67
     0
 10
3.5124330688
 20
0.4019234052
 40
0.1118159160
100
AcDbArc
 50
55.6153046982
 51
124.3846953018
  0
LINE
  8
Layer20$C$L20
  6
DASHED
 67
     0
 10
3.1979901001
 20
0.3402143211
 30
0.0000000000
 11
3.1979901001
 21
0.3652143211
 31
0.0000000000
  0
LINE
  8
Layer20$C$L20
  6
DASHED
 67
     0
 10
3.1979901001
 20
0.3652143211
 30
0.0000000000
 11
3.2229901001
 21
0.3402143211
 31
0.0000000000
  0
LINE
  8
Layer20$C$L20
  6
DASHED
 67
     0
 10
3.4229901001
 20
0.3402143211
 30
0.0000000000
 11
3.4479901001
 21
0.3652143211
 31
0.0000000000
  0
LINE
  8
Layer20$C$L20
  6
DASHED
 67
     0
 10
3.4479901001
 20
0.3652143211
 30
0.0000000000
 11
3.4479901001
 21
0.3402143211
 31
0.0000000000
  0
LINE
  8
Layer20$C$L20
  6
DASHED
 67
     0
 10
3.2229901001
 20
0.3402143211
 30
0.0000000000
 11
3.4229901001
 21
0.3402143211
 31
0.0000000000
  0
LINE
  8
Layer20$C$L20
 67
     0
 10
2.9329710007
 20
0.2052086830
 30
0.0000000000
 11
3.7129716873
 21
0.2052086830
 31
0.0000000000
  0
LINE
  8
Layer20$C$L20
 67
     0
 10
2.9329710007
 20
-0.6697913170
 30
0.0000000000
 11
2.9329710007
 21
0.2052086830
 31
0.0000000000
  0
LINE
  8
Layer20$C$L20
 67
     0
 10
3.7129716873
 20
-0.6697913170
 30
0.0000000000
 11
3.7129716873
 21
0.2052086830
 31
0.0000000000
  0
LINE
  8
Layer20$C$L20
 67
     0
 10
3.5665001343
 20
0.2702086830
 30
0.0000000000
 11
3.5665001343
 21
0.3402086830
 31
0.0000000000
  0
LINE
  8
Layer20$C$L20
 67
     0
 10
3.0795001343
 20
0.2702086830
 30
0.0000000000
 11
3.0795001343
 21
0.3402086830
 31
0.0000000000
  0
LINE
  8
Layer20$C$L20
 67
     0
 10
3.5755830933
 20
0.3402086830
 30
0.0000000000
 11
3.0704018433
 21
0.3402086830
 31
0.0000000000
  0
LINE
  8
Layer20$C$L20
 67
     0
 10
3.6355001343
 20
0.2052086830
 30
0.0000000000
 11
3.6355001343
 21
0.2702086830
 31
0.0000000000
  0
LINE
  8
Layer20$C$L20
 67
     0
 10
3.0105001343
 20
0.2052086830
 30
0.0000000000
 11
3.0105001343
 21
0.2702086830
 31
0.0000000000
  0
LINE
  8
Layer20$C$L20
 67
     0
 10
3.6355001343
 20
0.2702086830
 30
0.0000000000
 11
3.0105001343
 21
0.2702086830
 31
0.0000000000
  0
ENDSEC
  0
EOF
